#VERSION:0.83;
#TITLE:Show Me;
#SUBTITLE:;
#ARTIST:Ambler Productions ft. Sharmane;
#TITLETRANSLIT:;
#SUBTITLETRANSLIT:;
#ARTISTTRANSLIT:;
#GENRE:;
#ORIGIN:;
#CREDIT:Knox;
#BANNER:;
#BACKGROUND:;
#PREVIEWVID:;
#JACKET:;
#CDIMAGE:;
#DISCIMAGE:;
#LYRICSPATH:;
#CDTITLE:;
#MUSIC:Ambler Productions ft. Sharmain. - Show Me [Official Music Video].mp3;
#OFFSET:-0.383288;
#SAMPLESTART:34.397163;
#SAMPLELENGTH:12.000000;
#SELECTABLE:YES;
#BPMS:0.000=190.510;
#STOPS:;
#DELAYS:;
#WARPS:;
#TIMESIGNATURES:0.000=4=4;
#TICKCOUNTS:0.000=4;
#COMBOS:0.000=1;
#SPEEDS:0.000=1.000=0.000=0;
#SCROLLS:0.000=1.000;
#FAKES:;
#LABELS:0.000=Song Start;
#BGCHANGES:;
#KEYSOUNDS:;
#ATTACKS:
;

//---------------dance-single - Heavy----------------
#NOTEDATA:;
#CHARTNAME:Heavy;
#STEPSTYPE:dance-single;
#DESCRIPTION:Heavy;
#CHARTSTYLE:;
#DIFFICULTY:Hard;
#METER:7;
#RADARVALUES:0.221464,0.280982,0.103350,0.120575,0.000000,270.000000,252.000000,18.000000,21.000000,0.000000,0.000000,0.000000,0.000000,0.000000,0.221464,0.280982,0.103350,0.120575,0.000000,270.000000,252.000000,18.000000,21.000000,0.000000,0.000000,0.000000,0.000000,0.000000;
#CREDIT:Heavy;
#NOTES:
0000
0001
0000
0000
0010
0000
0000
0001
,
0000
0000
1000
0000
0000
0001
0000
0000
,
0010
0000
0000
0001
0000
0000
1000
0000
,
0000
1000
0000
0000
0010
0000
0000
0001
,
0000
0000
1000
0000
0000
0001
0000
0000
,
1000
0000
0000
0001
0000
0000
0010
0000
,
0000
1000
0000
0000
0100
0000
0000
0010
,
0000
0000
0001
0000
0000
0010
0000
0000
,
1000
0000
0000
1000
0000
0000
0010
0000
,
0000
0100
0000
0000
0010
0000
0000
0100
,
0000
0000
0010
0000
0000
0001
0000
0000
,
1000
0000
0000
0100
0000
0000
2000
0000
,
0000
3000
0002
0000
,
0003
0000
1001
0000
0000
1000
0000
0000
,
1000
0000
0000
1000
0000
0000
1001
0000
,
0000
0010
0000
0000
1000
0000
0000
0010
,
0000
0000
1000
0000
0000
0010
0000
0000
,
1000
0000
0000
1000
0000
0000
0001
0000
,
0000
0010
0000
0000
0001
0000
0000
1000
,
0000
0000
1000
0000
0000
0001
0000
0000
,
1000
0000
0000
0010
0000
0000
2002
0000
,
0000
0000
0000
0000
,
0000
3003
0000
0000
,
0000
0000
0000
0000
,
0000
0001
0000
0000
0010
0000
0000
1000
,
0000
0000
1100
0000
0000
0001
0000
0000
,
0001
0000
0000
1000
0000
0000
0010
0000
,
0000
1000
0000
0000
1001
0000
0000
0001
,
0000
1100
0001
0001
,
0001
0000
0000
2000
0000
0000
3000
0000
,
0000
0001
0000
0000
1001
0000
0000
1000
,
0000
0000
1001
0000
0000
0010
0000
0010
,
0000
0010
0000
1000
,
0000
0100
0000
0000
0010
0000
0000
1000
,
0000
0000
0001
0000
0000
0020
0000
0000
,
0030
0000
0000
1001
0000
0000
0010
0000
,
0000
0100
0000
0000
0001
0000
0000
1000
,
0000
0000
1001
0000
0000
1000
0000
0000
,
1001
0000
0000
0010
0000
0000
1010
0000
,
0000
0100
0000
0000
0001
0000
0000
1000
,
0000
0000
0001
0000
0000
0010
0000
0000
,
0100
0000
0000
0001
0000
0000
0010
0000
,
0000
0100
0000
0000
0001
0000
0000
1000
,
0000
0000
1001
0000
0000
1000
0000
0000
,
0001
0000
0000
0010
0000
0000
0100
0000
,
0000
1000
0000
0000
0010
0000
0000
0010
,
0000
0000
0001
0000
0000
0010
0000
0000
,
1000
0000
0000
1000
0000
0000
0100
0000
,
0000
0001
0000
0000
0010
0000
0000
0001
,
0000
2000
0000
0000
,
3000
0000
0000
1000
0000
0000
0100
0000
,
0000
1000
0000
0000
0001
0000
0000
0010
,
0000
2000
0000
0000
,
0000
0000
0000
0000
3000
0000
0000
1000
,
0000
1000
1000
0001
,
0000
0001
0000
0000
0010
0000
0000
2000
,
0000
0000
3000
0100
,
0000
0000
1000
0000
1000
0000
0000
0001
,
0000
0001
0000
0002
0000
0000
0000
0000
,
0000
0003
0000
2002
,
0000
0000
0000
0000
,
0000
0000
3003
0000
0000
0010
0000
0000
,
0001
0000
0000
0010
0000
0000
0001
0000
,
0000
0010
0000
0000
1000
0010
0000
1000
,
0000
0000
0001
0010
0000
0001
0000
0000
,
0001
0000
0000
0010
0000
0000
1000
0000
,
0000
0010
0000
0000
1000
0000
0000
2000
,
0000
0000
0000
3000
0000
0000
0000
1000
,
0000
0000
0001
0000
0000
0010
0000
0000
,
0001
0000
0000
0010
0000
0000
0100
0000
,
0000
0010
0000
0000
1000
0000
0000
0100
,
0000
0000
0001
0000
0000
0100
0000
0000
,
1000
0000
0000
0010
0000
0000
1000
0000
,
0000
0100
0000
0000
0100
0000
0000
0100
,
0000
0000
0001
0000
0000
0001
0000
0000
,
0001
0000
0000
1000
0000
0000
0010
0000
,
0000
1000
0000
0000
0010
0000
0000
1000
,
0000
0000
0001
0000
0000
1000
0000
0000
,
0001
0000
0000
1000
0000
0000
1001
0000
,
0000
2000
0000
0000
0000
0000
0000
0000
,
0000
0000
0000
0002
3000
0000
0000
0000
,
0000
0000
0000
0000
0000
0003
1000
0000
,
0000
0010
0000
0000
1000
0000
0000
1000
,
0000
0000
1000
0000
0000
0010
0000
0000
,
1000
0000
0000
0010
0000
0000
0101
0000
,
0000
2000
0000
0000
,
3002
0000
0000
0203
,
0000
0000
0302
0000
,
0003
0000
0100
0000
0000
0100
0000
0000
,
1000
0000
0000
1000
0000
0000
1000
0000
,
0000
1000
0000
0000
0010
0000
0000
0001
,
0000
0000
0010
0000
0000
0010
0000
0000
,
0010
0000
0000
1000
0000
0000
1000
0000
,
0000
0010
0000
0000
0001
0000
0000
0100
,
0000
2002
0000
0000
,
0000
0000
0000
3003
,
0000
0000
0000
0000
,
0000
0001
0000
0000
0001
0000
0000
1000
,
0000
0000
0010
0000
0000
0001
0000
0000
,
0100
0000
0000
0100
0000
0000
0010
0000
,
0000
0001
0000
0000
0001
0000
0000
1000
,
0000
0000
0001
0000
0000
0010
0000
0000
,
1000
0000
0000
1000
0000
0000
1000
0000
,
0000
0001
0000
0000
0001
0000
0000
1000
,
0000
0000
0001
0000
0000
0010
0000
0000
,
1000
0000
0000
1000
0000
0000
1000
0000
,
0000
0001
0000
0000
1000
0000
0000
1000
,
0000
0000
0001
0000
0000
0010
0000
0000
,
0010
0000
0000
0010
0000
0000
1001
0000
;
