#VERSION:0.83;
#TITLE:onlymp3.to - Junior Senior Shake your coconuts-OwhbXvVeKy0-192k-1696867356;
#SUBTITLE:;
#ARTIST:Dancing Monkeys Project;
#TITLETRANSLIT:;
#SUBTITLETRANSLIT:;
#ARTISTTRANSLIT:;
#GENRE:;
#ORIGIN:;
#CREDIT:Gorilla v1.1.3 (Dancing Monkeys v1.06);
#BANNER:;
#BACKGROUND:maxresdefault.jpg;
#PREVIEWVID:;
#JACKET:;
#CDIMAGE:;
#DISCIMAGE:;
#LYRICSPATH:;
#CDTITLE:;
#MUSIC:onlymp3.to - Junior Senior Shake your coconuts-OwhbXvVeKy0-192k-1696867356.mp3;
#OFFSET:-1.226583;
#SAMPLESTART:44.714081;
#SAMPLELENGTH:12.000000;
#SELECTABLE:YES;
#BPMS:0.000=137.971;
#STOPS:;
#DELAYS:;
#WARPS:;
#TIMESIGNATURES:0.000=4=4;
#TICKCOUNTS:0.000=4;
#COMBOS:0.000=1;
#SPEEDS:0.000=1.000=0.000=0;
#SCROLLS:0.000=1.000;
#FAKES:;
#LABELS:0.000=Song Start;
#BGCHANGES:;
#KEYSOUNDS:;
#ATTACKS:
;

//---------------dance-single - Basic----------------
#NOTEDATA:;
#CHARTNAME:Basic;
#STEPSTYPE:dance-single;
#DESCRIPTION:Basic;
#CHARTSTYLE:;
#DIFFICULTY:Easy;
#METER:6;
#RADARVALUES:0.324923,0.339741,0.104682,0.000000,0.000000,239.000000,228.000000,11.000000,0.000000,0.000000,0.000000,0.000000,0.000000,0.000000,0.324923,0.339741,0.104682,0.000000,0.000000,239.000000,228.000000,11.000000,0.000000,0.000000,0.000000,0.000000,0.000000,0.000000;
#CREDIT:Basic;
#NOTES:
// measure 0
0000
0001
0000
1000
,  // measure 1
0000
1000
0000
0001
,  // measure 2
0100
1001
0010
1000
,  // measure 3
1000
0010
0010
1000
,  // measure 4
0010
0100
1000
0010
,  // measure 5
1000
0100
1000
0010
,  // measure 6
1000
0001
0010
1000
,  // measure 7
0010
0100
0001
0010
,  // measure 8
1000
0001
0010
0100
,  // measure 9
1000
0001
0100
0010
,  // measure 10
1000
0001
0010
1000
,  // measure 11
1000
0001
0010
0100
,  // measure 12
1000
0100
0010
0001
,  // measure 13
1000
0001
0010
0100
,  // measure 14
1000
0001
0001
0010
,  // measure 15
0001
0001
1001
1000
,  // measure 16
0100
0100
0001
0010
,  // measure 17
0100
0001
1000
0100
,  // measure 18
1001
0100
0010
1000
,  // measure 19
1000
0001
0100
1000
,  // measure 20
1000
0001
0010
1000
,  // measure 21
0001
1000
0010
0001
,  // measure 22
0001
1000
0100
0001
,  // measure 23
0001
1000
0010
0001
,  // measure 24
1000
0001
0001
0010
,  // measure 25
1000
0001
0001
0100
,  // measure 26
1000
0000
0001
0000
,  // measure 27
1000
0000
0010
0000
,  // measure 28
0001
0001
1000
1000
,  // measure 29
0001
1000
0001
0100
,  // measure 30
1000
0001
0001
0010
,  // measure 31
1000
0001
0010
0100
,  // measure 32
1000
0100
0001
0001
,  // measure 33
1000
0100
0010
1000
,  // measure 34
0100
0001
0010
0100
,  // measure 35
1000
0010
0001
0100
,  // measure 36
1000
0100
0010
0001
,  // measure 37
0100
0001
0010
0100
,  // measure 38
1001
0100
0010
1000
,  // measure 39
0001
0100
1000
0010
,  // measure 40
1000
0100
0010
1000
,  // measure 41
0001
1000
0100
0001
,  // measure 42
1000
0001
0010
1000
,  // measure 43
0001
1000
0100
0001
,  // measure 44
0010
1000
0010
1000
,  // measure 45
0001
1000
0100
0001
,  // measure 46
1000
0100
0100
0001
,  // measure 47
1000
1000
0001
1000
,  // measure 48
1000
0100
0010
1000
,  // measure 49
0001
0001
1000
0001
,  // measure 50
0001
0100
0010
0100
,  // measure 51
1000
0010
0010
1000
,  // measure 52
1000
0100
0100
0010
,  // measure 53
0001
1001
0110
1001
,  // measure 54
1000
0100
0100
0100
,  // measure 55
0100
0100
0001
0010
,  // measure 56
0010
0010
0010
0010
,  // measure 57
1000
0100
0010
0001
,  // measure 58
1001
0000
1001
0000
,  // measure 59
1001
0000
1001
0000
;

//---------------dance-single - Standard----------------
#NOTEDATA:;
#CHARTNAME:Standard;
#STEPSTYPE:dance-single;
#DESCRIPTION:Standard;
#CHARTSTYLE:;
#DIFFICULTY:Medium;
#METER:7;
#RADARVALUES:0.454076,0.437762,0.304530,0.000000,0.000000,334.000000,302.000000,32.000000,0.000000,0.000000,0.000000,0.000000,0.000000,0.000000,0.454076,0.437762,0.304530,0.000000,0.000000,334.000000,302.000000,32.000000,0.000000,0.000000,0.000000,0.000000,0.000000,0.000000;
#CREDIT:Standard;
#NOTES:
0000
0000
0001
0000
0000
0000
0100
0000
,
0000
0000
1000
0000
0000
0000
0100
0000
,
0110
0000
1000
0001
1000
0001
0010
0000
,
0001
0000
1000
0010
0100
0000
0001
0000
,
0101
0000
1000
0010
0010
1000
0001
0000
,
1000
1000
0100
0000
0010
0000
1100
0000
,
0110
0000
1000
0001
1000
0001
0010
0000
,
1000
0010
0100
0000
1001
0000
1000
0000
,
1000
0010
0100
0001
0100
0000
0001
0000
,
1000
0010
0100
0000
1001
0000
1000
0000
,
0110
0000
1000
0001
1000
0001
0010
0000
,
1000
0010
0100
0001
0100
0000
0001
0000
,
1100
0000
0010
0001
1000
0100
0100
0000
,
1000
0010
0100
0001
0100
0000
0001
0000
,
0001
0000
0010
0100
0010
0100
1000
0000
,
0011
0000
0100
0000
0101
0000
1000
0000
,
1100
0000
0010
0001
1000
0100
0100
0000
,
0011
0000
0100
0000
0101
0000
1000
0000
,
0110
0000
1000
0001
1000
0001
0010
0000
,
0110
0000
1000
0001
1000
0001
0100
0000
,
0110
0000
1000
0001
1000
0001
0100
0000
,
0110
0000
1000
0001
1000
0001
0100
0000
,
0110
0000
1000
0001
1000
0001
0100
0000
,
0110
0000
1000
0001
1000
0001
0100
0000
,
1000
0010
0100
0000
1001
0000
1000
0000
,
1100
0000
0010
0100
0010
0000
1000
0000
,
0001
0000
0000
0000
0100
0000
0000
0000
,
1000
0000
0000
0000
0100
0000
0000
0000
,
1000
0000
0010
0000
0100
0000
0001
0000
,
1000
0001
0010
0001
1000
0000
0010
0000
,
0001
0000
0010
0100
0010
0100
1000
0000
,
1000
0010
0100
0001
0100
0000
0001
0000
,
1100
0000
0010
0001
1000
0100
0100
0000
,
0011
0000
0100
1000
0001
0010
0010
0000
,
0001
0000
0010
0100
0010
0100
1000
0000
,
1000
0010
0100
0001
0100
0000
0001
0000
,
1100
0000
0010
0001
1000
0100
0100
0000
,
1000
0010
0100
0001
0100
0000
0001
0000
,
0110
0000
1000
0001
1000
0001
0010
0000
,
0101
0000
1000
0010
0010
1000
0001
0000
,
0110
0000
1000
0001
1000
0001
0010
0000
,
0110
0000
0001
1000
0001
1000
0100
0000
,
0110
0000
0001
1000
0001
1000
0010
0000
,
0110
0000
1000
0001
1000
0001
0100
0000
,
0110
0000
1000
0001
1000
0001
0100
0000
,
0110
0000
1000
0001
1000
0001
0010
0000
,
0001
0000
0010
0000
0010
0000
0100
0000
,
1000
0000
1000
0010
1000
0000
0010
0000
,
0001
0000
0100
1000
0100
0000
0010
0000
,
1000
0000
0010
0001
0010
0000
0100
0000
,
1000
0000
0010
0001
0010
0000
0100
0000
,
0001
0000
1000
0010
0100
0000
0001
0100
,
0001
0000
0010
0000
0010
0000
0100
0000
,
1000
0001
0010
0001
1000
0000
0010
0000
,
0001
0000
0010
0000
0010
0000
0100
0000
,
1000
0000
0010
0000
0100
0000
0001
0000
,
0001
0000
0010
0000
0010
0000
0100
0000
,
1000
0000
0000
0000
0100
0000
0000
0000
,
0000
0000
0000
0000
0000
0000
0000
0000
,
;

//---------------dance-single - Heavy----------------
#NOTEDATA:;
#CHARTNAME:Heavy;
#STEPSTYPE:dance-single;
#DESCRIPTION:Heavy;
#CHARTSTYLE:;
#DIFFICULTY:Hard;
#METER:8;
#RADARVALUES:0.488064,0.441568,0.342596,0.000000,0.000000,359.000000,323.000000,36.000000,0.000000,0.000000,0.000000,0.000000,0.000000,0.000000,0.488064,0.441568,0.342596,0.000000,0.000000,359.000000,323.000000,36.000000,0.000000,0.000000,0.000000,0.000000,0.000000,0.000000;
#CREDIT:Heavy;
#NOTES:
0000
0000
0001
0000
0000
0000
1000
0000
,
0000
0000
0001
0000
0000
0000
1000
0000
,
1001
0000
0100
0010
0100
0001
0100
0000
,
0001
0000
0010
1000
0010
0001
1000
0000
,
0011
0000
0001
0100
0100
0010
0100
0000
,
1000
1000
0001
0010
0001
0000
1010
0000
,
1001
0000
0100
0010
0100
0001
0100
0000
,
1000
0100
0010
0000
1100
0000
0100
0010
,
0001
0010
0100
1000
0001
0000
0010
0100
,
1000
0100
0010
0000
1100
0000
0100
0000
,
1001
0000
0100
0010
0100
0001
0100
0000
,
0001
0010
0100
1000
0001
0000
0010
0000
,
0101
0000
0010
1000
0010
1000
1000
0100
,
0001
0010
0100
1000
0001
0000
0010
0100
,
0001
1000
0100
1000
0010
0001
0100
0000
,
1010
0000
0010
0000
0110
0000
0001
0000
,
0101
0000
0010
1000
0010
1000
1000
0000
,
1010
0000
0010
0000
0110
0000
0001
0000
,
1001
0000
0100
0010
0100
0001
0100
0000
,
1001
0000
0010
0100
0010
1000
0010
0000
,
1001
0000
0100
0010
0100
1000
0100
0000
,
1001
0000
0100
0010
0100
1000
0100
0000
,
1001
0000
0100
0010
0100
0001
0100
0000
,
1001
0000
0100
0010
0100
0001
0100
0000
,
1000
0100
0010
0000
1100
0000
0100
0000
,
1001
0000
0001
0100
0001
0000
1000
0000
,
1000
0000
0000
0000
0100
0000
0000
0000
,
1000
0000
0001
0000
0100
0000
0000
0000
,
0001
0000
0100
0000
0001
0000
1000
0000
,
1001
0000
1000
0001
1000
0000
1010
0000
,
0001
1000
0100
1000
0010
0001
0100
0000
,
0001
0010
0100
1000
0001
0000
0010
0000
,
0101
0000
0010
1000
0010
1000
1000
0000
,
1010
0000
0100
0001
0100
0001
0001
0010
,
0001
1000
0100
1000
0010
0001
0100
0000
,
0001
0010
0100
1000
0001
0000
0010
0000
,
0101
0000
0010
1000
0010
1000
1000
0100
,
0001
0010
0100
1000
0001
0000
0010
0000
,
1001
0000
0100
0010
0100
0001
0100
0000
,
0011
0000
0001
0100
0100
0010
0100
0000
,
1001
0000
0100
0010
0100
0001
0100
0000
,
1001
0000
0010
0100
0010
0001
0010
0000
,
1001
0000
0100
0010
0100
1000
0100
0000
,
1001
0000
0010
0100
0010
0001
0010
0000
,
1001
0000
0010
0100
0010
0001
0010
0000
,
1001
0000
0010
0100
0010
0001
0010
0000
,
0001
0000
0100
0010
0010
0000
1000
0000
,
1000
0000
1000
0001
0010
0000
0001
0010
,
1000
0000
0010
0100
0001
0100
0001
0000
,
1000
0000
0100
0010
0001
0010
0001
0000
,
0001
0000
0100
0010
1000
0010
1000
0000
,
0001
0000
0010
1000
0010
0001
1000
0100
,
0001
0000
0100
0010
0010
0000
1000
0000
,
1001
0000
1000
0001
1000
0000
1010
0000
,
0001
0000
0100
0010
0010
0000
1000
0000
,
0001
0000
0100
0000
0001
0000
1000
0000
,
0001
0000
0100
0010
0010
0000
1000
0000
,
1000
0000
0001
0000
0100
0000
0000
0000
,
1000
0000
0000
0000
0000
0000
0000
0000
,
;
