#TITLE:onlymp3.to - Junior Senior Shake your coconuts-OwhbXvVeKy0-192k-1696867356;
#SUBTITLE:;
#ARTIST:Dancing Monkeys Project;
#TITLETRANSLIT:;
#SUBTITLETRANSLIT:;
#ARTISTTRANSLIT:;
#GENRE:;
#CREDIT:Gorilla v1.1.3 (Dancing Monkeys v1.06);
#BANNER:;
#BACKGROUND:ab67616d0000b273f154dd3db24d230784eccf13.jpeg;
#LYRICSPATH:;
#CDTITLE:;
#MUSIC:onlymp3.to - Junior Senior Shake your coconuts-OwhbXvVeKy0-192k-1696867356.mp3;
#OFFSET:-1.238000;
#SAMPLESTART:44.715080;
#SAMPLELENGTH:12.000000;
#SELECTABLE:YES;
#BPMS:0.000000=138.003998
;
#STOPS:
;
#BGCHANGES:;
#KEYSOUNDS:;
#ATTACKS:;

//---------------dance-single - Basic----------------
#NOTES:
     dance-single:
     Basic:
     Easy:
     4:
     0.315883,0.311545,0.047772,0.013649,0.000000,324.000000,317.000000,7.000000,2.000000,0.000000,0.000000,0.315883,0.311545,0.047772,0.013649,0.000000,324.000000,317.000000,7.000000,2.000000,0.000000,0.000000:
// measure 0
0000
1000
0000
0001
,  // measure 1
0000
1000
0100
0010
,  // measure 2
0100
0010
0100
0010
,  // measure 3
0001
1000
0001
0100
,  // measure 4
0100
0001
0001
1000
,  // measure 5
0100
0100
0001
0010
,  // measure 6
0010
1000
0001
1000
,  // measure 7
0001
1000
0001
0010
,  // measure 8
0100
0010
0100
0010
,  // measure 9
1000
0001
0010
0100
,  // measure 10
0010
1000
0010
0001
,  // measure 11
0010
0100
0010
1000
,  // measure 12
0010
1000
0010
0100
,  // measure 13
1000
0100
0010
0001
,  // measure 14
0001
0010
1000
0100
,  // measure 15
0001
1000
0010
1000
,  // measure 16
0010
1000
0100
0010
,  // measure 17
0001
1000
0010
0100
,  // measure 18
1001
0100
0010
0100
,  // measure 19
0010
0100
0100
0010
,  // measure 20
0010
1000
0100
0010
,  // measure 21
1000
0001
0100
0010
,  // measure 22
0001
1000
0010
0100
,  // measure 23
1000
0001
0100
0010
,  // measure 24
0001
1000
0100
0010
,  // measure 25
0100
0010
0001
0010
,  // measure 26
1000
0000
0001
0000
,  // measure 27
1000
0000
0001
0000
,  // measure 28
1000
0001
0001
1000
,  // measure 29
1000
0001
0001
1000
,  // measure 30
0010
0100
0010
0001
,  // measure 31
1000
0001
0010
0100
,  // measure 32
0100
0010
0010
0001
,  // measure 33
1000
0100
0010
0001
,  // measure 34
0010
0100
1000
0100
,  // measure 35
0010
0100
0010
0010
,  // measure 36
0100
1000
0100
0100
,  // measure 37
1000
1000
0010
0100
,  // measure 38
1001
0100
0010
1000
,  // measure 39
1000
0001
0001
0010
,  // measure 40
1000
0001
0100
0010
,  // measure 41
0001
1000
0100
0010
,  // measure 42
0001
1000
0010
0100
,  // measure 43
0001
1000
0010
0100
,  // measure 44
0001
1000
0010
0100
,  // measure 45
0010
1000
0001
0010
,  // measure 46
0001
0010
0100
1000
,  // measure 47
0100
1000
0010
0100
,  // measure 48
0010
0001
0100
0001
,  // measure 49
0100
1000
0100
0010
,  // measure 50
1000
0001
0010
0001
,  // measure 51
1000
0010
0010
1000
,  // measure 52
1000
0010
0100
1000
,  // measure 53
0001
0010
0001
0100
,  // measure 54
0010
1000
1000
1000
,  // measure 55
0001
0001
0001
0100
,  // measure 56
0100
0010
0010
0100
,  // measure 57
0100
0100
0010
0010
,  // measure 58
1000
0000
0001
0000
,  // measure 59
1000
0000
0001
0000
,  // measure 60
1000
1000
0001
0001
,  // measure 61
0100
0010
1000
0001
,  // measure 62
0100
0010
1000
0001
,  // measure 63
0010
0100
0010
0100
,  // measure 64
1000
0100
0010
0001
,  // measure 65
1000
0010
0100
0001
,  // measure 66
1000
1000
0010
0001
,  // measure 67
0001
0100
0010
1000
,  // measure 68
0010
1000
0100
0010
,  // measure 69
1000
0100
0010
0100
,  // measure 70
1001
0001
0100
0010
,  // measure 71
0001
1000
0100
0010
,  // measure 72
1001
0010
0100
0010
,  // measure 73
1000
0001
0100
0010
,  // measure 74
1001
0010
0100
0010
,  // measure 75
1000
0001
0100
0010
,  // measure 76
1001
0100
0010
1000
,  // measure 77
0001
1000
0001
0010
,  // measure 78
1000
0001
0100
0010
,  // measure 79
1000
0010
0100
0010
,  // measure 80
0001
0100
0010
0100
,  // measure 81
1000
0010
0100
2002
,  // measure 82
0000
0000
0000
0000
,  // measure 83
3003
0000
0000
0000
;

//---------------dance-single - Standard----------------
#NOTES:
     dance-single:
     Standard:
     Medium:
     6:
     0.396804,0.391137,0.266161,0.000000,0.000000,407.000000,368.000000,39.000000,0.000000,0.000000,0.000000,0.396804,0.391137,0.266161,0.000000,0.000000,407.000000,368.000000,39.000000,0.000000,0.000000,0.000000:
0000
0000
0000
0000
0000
0000
1000
0000
,
0000
0000
0000
0000
0000
0000
1000
0000
,
0011
0000
1000
0010
1000
0000
0100
0000
,
0001
0000
0100
0010
1000
0000
0010
0000
,
0101
0000
1000
0000
0110
0000
0001
0000
,
0001
0000
0010
0000
0010
0010
0100
0000
,
0001
0000
0001
0010
0100
0000
1000
0000
,
0001
0000
0100
0010
1000
0000
0010
0000
,
1010
0000
0010
0100
0010
0000
1000
0000
,
0001
0000
0010
0100
0100
0000
1000
0000
,
0001
0000
0001
0010
0100
0000
1000
0000
,
0001
0000
0100
0001
1000
0000
0001
0000
,
1010
0000
0010
0100
0010
0000
1000
0000
,
0001
0000
0100
0001
1000
0000
0001
0000
,
1000
0000
0001
0100
0001
0000
0100
0000
,
1000
1000
0100
0000
0110
0000
1000
0000
,
1010
0000
0010
0100
0010
0000
1000
0000
,
1000
1000
0100
0000
0110
0000
1000
0000
,
0001
0000
0001
0010
0100
0000
1000
0000
,
0011
0000
1000
0010
1000
0000
0010
0000
,
0011
0000
1000
0010
1000
0000
0010
0000
,
0101
0000
1000
0100
1000
0000
0100
0000
,
0011
0000
1000
0010
1000
0000
0010
0000
,
0101
0000
1000
0100
1000
0000
0100
0000
,
1100
0000
0001
0100
0001
0000
0100
0000
,
0101
0000
0001
1000
0010
0000
1000
0000
,
0001
0000
0000
0000
0100
0000
0000
0000
,
0001
0000
0000
0000
0010
0000
0000
0000
,
0001
0000
0010
0000
0000
0000
0001
0000
,
0011
0000
1000
0010
1000
0000
0100
0000
,
0001
0000
0001
0010
0100
0000
1000
0000
,
0001
0000
0010
0100
0100
0000
1000
0000
,
1010
0000
0010
0100
0010
0000
1000
0000
,
0001
0000
0100
0001
1000
0000
0001
0000
,
0001
0000
0001
0010
0100
0000
1000
0000
,
0001
0000
0100
0001
1000
0000
0001
0000
,
1010
0000
0010
0100
0010
0000
1000
0000
,
0001
0000
0100
0001
1000
0000
0001
0000
,
0001
0000
0001
0010
0100
0000
1000
0000
,
0011
0000
1000
0010
1000
0000
0010
0000
,
1100
0000
0001
0100
0001
0000
0100
0000
,
1100
0000
0001
0100
0001
0000
0100
0000
,
1100
0000
0001
0100
0001
0000
0100
0000
,
0011
0000
1000
0010
1000
0000
0010
0000
,
1100
0000
0001
0100
0001
0000
0100
0000
,
0101
0000
0001
1000
0010
0000
1000
0000
,
0001
0000
0100
0000
0010
0000
0000
0000
,
1000
0000
0100
0000
1000
0000
0100
0000
,
0001
0000
0100
0000
0001
0000
0100
0000
,
1000
0000
0100
0000
1000
0000
0100
0000
,
0001
0000
0100
0000
0001
0000
0100
0000
,
1000
0000
0000
0100
1000
0000
0100
0000
,
0001
0000
0100
0000
0010
0000
0000
0000
,
0011
0000
1000
0010
1000
0000
0100
0000
,
0001
0000
0100
0000
0010
0000
0000
0000
,
0001
0000
0010
0000
0000
0000
0001
0000
,
1000
0000
0100
0000
0000
0000
1000
0000
,
1000
0000
0100
0000
0000
0000
1000
0000
,
0001
0000
0000
0000
0100
0000
0000
0000
,
0001
0000
0000
0000
0100
0000
0000
0000
,
0001
0000
0010
0000
0000
0000
0001
0000
,
0001
0000
0010
0000
0010
0010
0100
0000
,
0001
0000
0001
0010
0100
0000
1000
0000
,
0001
0000
0100
0010
1000
0000
0010
0000
,
0001
0000
0100
0001
1000
0000
0001
0000
,
1000
0000
0010
1000
0001
0000
1000
0000
,
0001
0000
0001
0010
0100
0000
1000
0000
,
0001
0000
0100
0001
1000
0000
0001
0000
,
1010
0000
0010
0100
0010
0000
1000
0000
,
0001
0000
0100
0001
1000
0000
0001
0000
,
0011
0000
1000
0010
1000
0000
0010
0000
,
0011
0000
1000
0010
1000
0000
0010
0000
,
1010
0000
0010
0100
0010
0000
1000
0000
,
0011
0000
1000
0010
1000
0000
0010
0000
,
0101
0000
1000
0100
1000
0000
0100
0000
,
1010
0000
0001
0010
0001
0000
0010
0000
,
0101
0000
1000
0000
0110
0000
0001
0000
,
0101
0000
0001
1000
0010
0000
1000
0000
,
0011
0000
1000
0010
1000
0000
0010
0000
,
0011
0000
0010
1000
0010
0000
1000
0000
,
0101
0000
0100
1000
0100
0000
1000
0000
,
0001
0000
0100
0010
0100
0000
0010
1000
,
;

//---------------dance-single - Heavy----------------
#NOTES:
     dance-single:
     Heavy:
     Hard:
     8:
     0.493324,0.447014,0.334407,0.000000,0.000000,506.000000,457.000000,49.000000,0.000000,0.000000,0.000000,0.493324,0.447014,0.334407,0.000000,0.000000,506.000000,457.000000,49.000000,0.000000,0.000000,0.000000:
0000
0000
0001
0000
0000
0000
0010
0000
,
0000
0000
0001
0000
0000
0000
0100
0000
,
1001
0000
0100
0010
0001
0010
0001
0000
,
1000
0010
1000
0000
1100
0000
0001
0000
,
1010
0000
0001
0000
1010
0000
1000
0000
,
1000
0000
0001
0001
0001
0000
0011
0000
,
0001
1000
1000
0100
1000
0010
0100
0000
,
1000
0010
1000
0000
1100
0000
0001
0000
,
0110
0000
0010
0100
1000
1000
0001
0000
,
1010
0000
0000
1000
1000
0100
0010
0100
,
0001
1000
1000
0100
1000
0010
0100
0000
,
1000
1000
0001
0010
1000
0000
0010
0000
,
0110
0000
0010
0100
1000
1000
0001
0000
,
1000
1000
0001
0010
1000
0000
0010
0001
,
1000
0100
0010
1000
0010
0100
0010
0000
,
1010
0000
0010
0000
0101
0000
0100
0000
,
0110
0000
0010
0100
1000
1000
0001
0000
,
1010
0000
0010
0000
0101
0000
0100
1000
,
0001
1000
1000
0100
1000
0010
0100
0000
,
1100
0000
0001
1000
0001
0010
0001
0000
,
1100
0000
0001
1000
0001
0010
0001
0000
,
0101
0000
1000
0001
1000
0010
1000
0000
,
0101
0000
1000
0001
1000
0010
1000
0000
,
0101
0000
1000
0001
1000
0010
1000
0000
,
1100
0000
0001
1000
0001
0010
0001
0000
,
1100
0000
0100
0001
0100
0010
1000
0000
,
1000
0000
0000
0000
0010
0000
0000
0000
,
0001
0000
0000
0000
0010
0000
0000
0000
,
1000
0000
0010
0000
1000
0000
0001
0000
,
1001
0000
0100
0010
0001
0010
0001
0000
,
0001
1000
1000
0100
1000
0010
0100
0000
,
1010
0000
0000
1000
1000
0100
0010
0000
,
0110
0000
0010
0100
1000
1000
0001
0000
,
1000
1000
0001
0010
1000
0000
0010
0001
,
0001
1000
1000
0100
1000
0010
0100
0000
,
1000
1000
0001
0010
1000
0000
0010
0000
,
0110
0000
0010
0100
1000
1000
0001
0000
,
1000
1000
0001
0010
1000
0000
0010
0001
,
0001
1000
1000
0100
1000
0010
0100
0000
,
1100
0000
0001
1000
0001
0010
0001
0000
,
0011
0000
1000
0001
1000
0100
1000
0000
,
1010
0000
0001
1000
0001
0100
0001
0000
,
1100
0000
0001
1000
0001
0010
0001
0000
,
0101
0000
1000
0001
1000
0010
1000
0000
,
1100
0000
0001
1000
0001
0010
0001
0000
,
1100
0000
0100
0001
0100
0010
1000
0000
,
1000
0000
0100
0001
0100
0000
1000
0000
,
1000
0000
0001
0001
1000
0000
0010
0100
,
0001
0000
1000
1000
0001
0000
0010
0100
,
1000
0000
0001
0001
1000
0000
0100
0010
,
1000
0000
0001
0001
1000
0000
0100
0010
,
1000
0000
0010
1000
0100
0000
1000
0001
,
1000
0000
0100
0001
0100
0000
1000
0000
,
1001
0000
0100
0010
0001
0010
0001
0000
,
1000
0000
0100
0001
0100
0000
1000
0000
,
1000
0000
0010
0000
1000
0000
0001
0000
,
1000
0000
0100
0000
1000
0000
0001
0000
,
1000
0000
0100
0000
1000
0000
0001
0000
,
1000
0000
0000
0000
0010
0000
0000
0000
,
1000
0000
0000
0000
0100
0000
0000
0000
,
1000
0000
0010
0000
1000
0000
0001
0000
,
1000
0000
0001
0001
0001
0000
0011
0000
,
0001
1000
1000
0100
1000
0010
0100
0000
,
1000
0010
1000
0000
1100
0000
0001
0001
,
1000
1000
0001
0010
1000
0000
0010
0001
,
1000
1000
0001
0100
1000
0000
0100
0001
,
0001
1000
1000
0100
1000
0010
0100
0000
,
1000
1000
0001
0010
1000
0000
0010
0000
,
0110
0000
0010
0100
1000
1000
0001
0000
,
1000
1000
0001
0010
1000
0000
0010
0000
,
1100
0000
0001
1000
0001
0010
0001
0000
,
1100
0000
0001
1000
0001
0010
0001
0000
,
0110
0000
0010
0100
1000
1000
0001
0000
,
1100
0000
0001
1000
0001
0010
0001
0000
,
1100
0000
0001
1000
0001
0010
0001
0000
,
0101
0000
1000
0001
1000
0010
1000
0000
,
1010
0000
0001
0000
1010
0000
1000
0000
,
1100
0000
0100
0001
0100
0010
1000
0000
,
1100
0000
0001
1000
0001
0010
0001
0000
,
1001
0000
0010
0100
0010
0100
1000
0000
,
1001
0000
0010
0100
0010
0100
1000
0000
,
0110
0000
1000
0100
0001
0000
0100
0010
,
;
