#TITLE:SHAKE THAT SHIT;
#SUBTITLE:;
#ARTIST:Dancing Monkeys Project;
#TITLETRANSLIT:;
#SUBTITLETRANSLIT:;
#ARTISTTRANSLIT:;
#GENRE:;
#CREDIT:Gorilla v1.1.3 (Dancing Monkeys v1.06);
#BANNER:ab67616d00001e0216a7b329ad8b58b32cda4489.png;
#BACKGROUND:400x400cc.png;
#LYRICSPATH:;
#CDTITLE:;
#MUSIC:onlymp3.to - SHAKE THAT SHIT prodbyabnormal x hr -QEVd49OeRDA-192k-1696849514.mp3;
#OFFSET:-0.463625;
#SAMPLESTART:43.827286;
#SAMPLELENGTH:12.000000;
#SELECTABLE:YES;
#BPMS:0.000000=143.899002
;
#STOPS:
;
#BGCHANGES:;
#KEYSOUNDS:;
#ATTACKS:;

//---------------dance-single - Basic----------------
#NOTES:
     dance-single:
     :
     Medium:
     7:
     0.271902,0.297392,0.009517,0.152265,0.000000,200.000000,199.000000,1.000000,16.000000,0.000000,0.000000,0.271902,0.297392,0.009517,0.152265,0.000000,200.000000,199.000000,1.000000,16.000000,0.000000,0.000000:
2000
0000
3000
0002
,
0000
0000
0003
2000
,
0000
0000
3000
0002
,
0000
0000
0003
0020
,
0000
0000
0030
0200
,
0000
0000
0300
0002
,
0000
0000
0003
2000
,
0000
3000
0000
1001
,
0010
0010
0010
1000
,
1000
1000
1000
0100
,
0100
0100
0100
1000
,
1000
1000
1000
0002
,
0000
0000
0003
0200
,
0000
0000
0300
2000
,
0000
0000
3000
0002
,
0000
0000
0003
0100
,
0100
0100
1000
1000
,
1000
0100
0100
0100
,
1000
1000
1000
0100
,
0100
0100
0010
0010
,
0010
0001
0001
0001
,
1000
1000
1000
0100
,
0100
0100
0001
0001
,
0001
1000
1000
1000
,
0100
0100
0100
0001
,
0001
0001
0100
0100
,
0100
1000
1000
1000
,
0100
0100
0100
0001
,
0001
0001
0010
0010
,
0010
0001
0001
0001
,
0010
0010
0010
0001
,
0001
0001
0010
0000
,
0010
0010
0001
0100
,
0100
1000
0010
0010
,
0001
0010
0010
1000
,
0010
0010
0001
0100
,
0100
1000
0010
0010
,
0001
0010
0010
1000
,
0100
0100
0001
1000
,
1000
0001
0010
0010
,
1000
1000
0010
1000
,
1000
0001
0100
0100
,
1000
0001
0001
1000
,
0100
0100
0001
0100
,
0100
1000
0010
0010
,
1000
0010
0010
1000
,
1000
0001
0001
0001
,
1000
1000
1000
0001
,
1000
0001
1000
0001
,
1000
0001
1000
0001
,
1000
0001
1000
0001
,
1000
0001
1000
0001
,
1000
0001
1000
0001
,
1000
0001
1000
0001
,
1000
0001
1000
0001
,
1000
0001
1000
0200
,
0000
0000
0300
0020
,
0000
0000
0030
0002
,
0000
0000
0003
2000
,
0000
3000
0000
0100
,
0000
0100
0000
0010
,
0000
0010
0000
0001
,
0001
0001
0001
0000
;

//---------------dance-single - Basic----------------
#NOTES:
     dance-single:
     :
     Easy:
     7:
     0.217521,0.238747,0.000000,0.000000,0.000000,160.000000,160.000000,0.000000,0.000000,0.000000,0.000000,0.217521,0.238747,0.000000,0.000000,0.000000,160.000000,160.000000,0.000000,0.000000,0.000000,0.000000:
// measure 0
1000
0000
1000
0000
,  // measure 1
0001
0000
0001
0000
,  // measure 2
1000
0000
1000
0000
,  // measure 3
0001
0000
0001
0000
,  // measure 4
0100
0000
0100
0000
,  // measure 5
1000
0000
1000
0000
,  // measure 6
0100
0000
0100
0000
,  // measure 7
1000
0000
1000
0000
,  // measure 8
0010
0000
0010
0000
,  // measure 9
0001
0000
0001
0000
,  // measure 10
0010
0000
0010
0000
,  // measure 11
1000
0000
1000
0000
,  // measure 12
0001
0000
0001
0000
,  // measure 13
1000
0000
1000
0000
,  // measure 14
0100
0000
0100
0000
,  // measure 15
0100
0000
0000
1000
,  // measure 16
1000
1000
1000
1000
,  // measure 17
0001
0001
0001
0001
,  // measure 18
0100
0100
0100
0100
,  // measure 19
1000
1000
1000
1000
,  // measure 20
0010
0010
0010
0010
,  // measure 21
0100
0100
0100
0100
,  // measure 22
0001
0001
0001
0001
,  // measure 23
1000
1000
1000
1000
,  // measure 24
0010
0010
0010
0001
,  // measure 25
0001
0001
0001
0001
,  // measure 26
1000
1000
1000
1000
,  // measure 27
0100
0100
0100
0100
,  // measure 28
1000
1000
1000
1000
,  // measure 29
0100
0100
0100
0100
,  // measure 30
0010
0010
0010
0010
,  // measure 31
0001
0001
0001
0001
,  // measure 32
0000
1000
0000
0001
,  // measure 33
0000
1000
0000
0001
,  // measure 34
0000
0010
0000
0100
,  // measure 35
0000
0010
0000
0100
,  // measure 36
0000
0010
0000
1000
,  // measure 37
0000
0100
0000
0001
,  // measure 38
0000
0010
0000
0100
,  // measure 39
0000
1000
0000
0100
,  // measure 40
0000
0010
0000
0001
,  // measure 41
0000
0010
0000
0100
,  // measure 42
0000
1000
0000
0100
,  // measure 43
0000
0010
0000
0001
,  // measure 44
0000
0010
0000
0100
,  // measure 45
0000
1000
0000
0100
,  // measure 46
0000
0010
0000
0001
,  // measure 47
0000
0010
0000
0100
,  // measure 48
0100
0100
0100
0100
,  // measure 49
0001
0001
0001
0010
,  // measure 50
0010
0010
0010
1000
,  // measure 51
1000
1000
1000
0010
,  // measure 52
0010
0010
0010
0001
,  // measure 53
0001
0001
0001
0001
,  // measure 54
0100
0100
0100
0100
,  // measure 55
1000
1000
1000
1000
;
