#TITLE:SHAKE THAT SHIT 2;
#SUBTITLE:;
#ARTIST:Dancing Monkeys Project;
#TITLETRANSLIT:;
#SUBTITLETRANSLIT:;
#ARTISTTRANSLIT:;
#GENRE:;
#CREDIT:Gorilla v1.1.3 (Dancing Monkeys v1.06);
#BANNER:66fb079ecdb25.png;
#BACKGROUND:hq720.png;
#LYRICSPATH:;
#CDTITLE:;
#MUSIC:shake-that-shit-2-128-ytshorts.savetube.me.mp3;
#OFFSET:-1.249604;
#SAMPLESTART:43.274605;
#SAMPLELENGTH:12.000000;
#SELECTABLE:YES;
#BPMS:0.000000=142.772003
;
#STOPS:
;
#BGCHANGES:;
#KEYSOUNDS:;
#ATTACKS:;

//---------------dance-single - Basic----------------
#NOTES:
     dance-single:
     :
     Medium:
     3:
     0.226809,0.293887,0.020268,0.108096,0.000000,235.000000,232.000000,3.000000,16.000000,0.000000,0.000000,0.226809,0.293887,0.020268,0.108096,0.000000,235.000000,232.000000,3.000000,16.000000,0.000000,0.000000:
2000
0000
0000
0000
,
3000
0000
0002
0000
,
0000
0000
0000
0000
,
0000
0000
0003
0000
,
2000
0000
0000
0000
,
0000
0000
0000
0000
,
3000
0000
0000
0000
,
0000
0001
0001
1000
,
1000
0001
0010
0100
,
1000
0100
0010
0001
,
1000
0100
0010
0001
,
0010
0100
1000
0100
,
0010
0001
0010
0100
,
1000
0100
0010
0001
,
0010
0100
1000
0100
,
0010
0100
0100
0100
,
0001
0001
0001
0100
,
0100
0010
0010
0010
,
1000
1000
0010
0010
,
0010
0200
0000
0000
,
0000
0000
0000
0000
,
0300
1000
1000
1000
,
1000
0001
0001
0100
,
0100
1001
0000
0001
,
0000
0010
0000
0100
,
0000
1000
0000
0010
,
0000
0100
0000
1000
,
0000
0100
0000
0001
,
0000
1000
0000
0010
,
0000
0001
0001
0001
,
0010
0010
0010
0010
,
0000
1001
0010
0010
,
0010
0000
0100
0100
,
0100
0010
0010
0010
,
1000
1000
1000
0010
,
0010
0010
0001
0001
,
0001
1000
1000
0100
,
0100
1000
1000
0001
,
0001
1000
1000
0001
,
0001
0010
0010
0001
,
0001
1000
1000
0100
,
0100
0010
0010
0001
,
0001
1000
1000
0010
,
0010
1000
1000
0010
,
0010
1000
1000
0100
,
0100
1000
1000
0001
,
0001
0010
0010
0010
,
0000
1000
0000
0010
,
0000
0001
0000
0100
,
0000
1000
0000
0010
,
0000
0010
0000
0010
,
0000
0100
0000
0001
,
0000
0010
0000
0001
,
0000
0001
0000
1000
,
0000
0010
0000
0100
,
0000
0001
0001
0001
,
0001
2000
0000
0000
,
3000
1000
1000
1000
,
1000
2000
0000
0000
,
3000
0001
0001
0001
,
0001
0002
0000
0000
,
0003
0010
0010
0010
,
0010
0020
0000
0000
,
0030
1001
0000
0010
,
0000
0001
0000
1000
,
0000
0010
0000
0100
,
0000
1000
0000
0100
,
0000
0010
0000
0100
,
0000
0001
0000
0010
,
0000
0100
0000
0010
,
0000
0100
0000
0001
,
0000
1000
0001
1000
,
0001
1000
0001
1000
,
0001
1000
0001
1000
,
0001
1000
0001
1000
,
0001
1000
0001
1000
,
0001
1000
0001
1000
,
0001
1000
0001
1000
,
0001
1000
0001
1000
,
0000
0002
0000
0000
,
0003
2000
0000
0000
,
3000
0020
0000
0000
,
0030
2000
0000
0000
,
3000
0002
0000
0000
,
0003
2000
0000
0000
,
3000
0020
0000
0000
,
0030
2000
0000
0000
,
3000
0000
0000
0000
;

//---------------dance-single - Basic----------------
#NOTES:
     dance-single:
     :
     Easy:
     3:
     0.154423,0.174812,0.000000,0.000000,0.000000,160.000000,160.000000,0.000000,0.000000,0.000000,0.000000,0.154423,0.174812,0.000000,0.000000,0.000000,160.000000,160.000000,0.000000,0.000000,0.000000,0.000000:
// measure 0
1000
0000
0010
0000
,  // measure 1
0000
0000
0001
0000
,  // measure 2
0000
0000
0100
0000
,  // measure 3
0010
0000
0000
0000
,  // measure 4
1000
0000
0000
0010
,  // measure 5
0000
0000
0001
0000
,  // measure 6
0000
0000
0000
0000
,  // measure 7
0000
1000
0000
1000
,  // measure 8
0000
0010
0000
0010
,  // measure 9
0000
1000
0000
1000
,  // measure 10
0000
0001
0000
0001
,  // measure 11
0000
0100
0000
0100
,  // measure 12
0000
0010
0000
0010
,  // measure 13
0000
0100
0000
0100
,  // measure 14
0000
0001
0000
0001
,  // measure 15
0000
1000
0000
1000
,  // measure 16
0000
0100
0000
0100
,  // measure 17
0000
0010
0000
0010
,  // measure 18
0000
0001
0000
0001
,  // measure 19
0000
0100
0000
0100
,  // measure 20
0000
0001
0000
0001
,  // measure 21
0000
1000
0000
1000
,  // measure 22
0000
0010
0000
0010
,  // measure 23
0000
0001
0000
0001
,  // measure 24
0000
0100
0000
0100
,  // measure 25
0000
1000
0000
1000
,  // measure 26
0000
0100
0000
0100
,  // measure 27
0000
0001
0000
0001
,  // measure 28
0000
1000
0000
1000
,  // measure 29
0000
0001
0000
0001
,  // measure 30
0000
0010
0000
0010
,  // measure 31
0000
1000
0000
1000
,  // measure 32
0000
0001
0000
0001
,  // measure 33
0000
0100
0000
0100
,  // measure 34
0000
1000
0000
1000
,  // measure 35
0000
0100
0000
0100
,  // measure 36
0000
0010
0000
0010
,  // measure 37
0000
0100
0000
0100
,  // measure 38
0000
1000
0000
1000
,  // measure 39
0000
0001
0000
0001
,  // measure 40
0000
1000
0000
1000
,  // measure 41
0000
1000
0000
0010
,  // measure 42
0000
0010
0000
0010
,  // measure 43
0000
1000
0000
1000
,  // measure 44
0000
1000
0000
0100
,  // measure 45
0000
0100
0000
0100
,  // measure 46
0000
0001
0000
0001
,  // measure 47
0000
0001
0000
0010
,  // measure 48
0000
0010
0000
0100
,  // measure 49
0000
0100
0000
0001
,  // measure 50
0000
0001
0000
0100
,  // measure 51
0000
0100
0000
0010
,  // measure 52
0000
0010
0000
0010
,  // measure 53
0000
1000
0000
1000
,  // measure 54
0000
1000
0000
0001
,  // measure 55
0000
0001
0000
0000
,  // measure 56
0000
0001
0001
0001
,  // measure 57
0000
1000
0000
0000
,  // measure 58
0000
1000
1000
1000
,  // measure 59
0000
0010
0000
0000
,  // measure 60
0000
0001
0001
0001
,  // measure 61
0000
0010
0000
0000
,  // measure 62
0000
0010
0010
0010
,  // measure 63
0010
0010
0000
0000
,  // measure 64
0001
0000
1000
0000
,  // measure 65
0010
0000
0100
0000
,  // measure 66
1000
0000
1000
0000
,  // measure 67
0001
0000
0100
0000
,  // measure 68
0001
0000
0010
0000
,  // measure 69
0100
0000
0001
0000
,  // measure 70
0100
0000
0001
0000
,  // measure 71
0000
1000
0000
1000
,  // measure 72
0000
0100
0000
0100
,  // measure 73
0000
0010
0000
0010
,  // measure 74
0000
0001
0000
0001
,  // measure 75
0000
1000
0000
1000
,  // measure 76
0000
1000
0000
0010
,  // measure 77
0000
0010
0000
1000
,  // measure 78
0000
1000
0000
0001
,  // measure 79
0000
0001
0000
0000
,  // measure 80
0000
1000
0000
0000
,  // measure 81
0000
0010
0000
0000
,  // measure 82
0000
1000
0000
0000
,  // measure 83
0000
0001
0000
0000
,  // measure 84
0000
0010
0000
0000
,  // measure 85
0000
1000
0000
0000
,  // measure 86
0000
0010
0000
0000
;
