#TITLE:onlymp3.to - DaBaby SHAKE SUMN-iuczDtEwoS4-192k-1697643864;
#SUBTITLE:;
#ARTIST:Dancing Monkeys Project;
#TITLETRANSLIT:;
#SUBTITLETRANSLIT:;
#ARTISTTRANSLIT:;
#GENRE:;
#CREDIT:Gorilla v1.1.3 (Dancing Monkeys v1.06);
#BANNER:download.png;
#BACKGROUND:DaBabySexyyRed.png;
#LYRICSPATH:;
#CDTITLE:;
#MUSIC:onlymp3.to - DaBaby SHAKE SUMN-iuczDtEwoS4-192k-1697643864.mp3;
#OFFSET:-1.392729;
#SAMPLESTART:43.363564;
#SAMPLELENGTH:12.000000;
#SELECTABLE:YES;
#BPMS:0.000000=142.955994
;
#STOPS:
;
#BGCHANGES:;
#KEYSOUNDS:;
#ATTACKS:;

//---------------dance-single - Basic----------------
#NOTES:
     dance-single:
     Basic:
     Easy:
     6:
     0.320712,0.310882,0.015979,0.023968,0.000000,281.000000,279.000000,2.000000,3.000000,0.000000,0.000000,0.320712,0.310882,0.015979,0.023968,0.000000,281.000000,279.000000,2.000000,3.000000,0.000000,0.000000:
// measure 0
1000
0001
0100
0010
,  // measure 1
1000
0001
0010
0100
,  // measure 2
0010
0001
0100
0010
,  // measure 3
1000
0001
0010
0100
,  // measure 4
0001
1000
0010
0100
,  // measure 5
0001
1000
0100
0010
,  // measure 6
0001
1000
0100
0010
,  // measure 7
0001
1000
0100
0010
,  // measure 8
0001
1000
0100
0010
,  // measure 9
1000
0001
0100
0010
,  // measure 10
0100
0001
0100
0010
,  // measure 11
0100
0001
0100
0010
,  // measure 12
1000
0010
0001
0100
,  // measure 13
0010
0001
0100
0010
,  // measure 14
1000
0010
0001
0100
,  // measure 15
0010
0001
0100
0010
,  // measure 16
0001
0100
0001
0100
,  // measure 17
0001
0010
1000
0100
,  // measure 18
0001
0010
0100
0010
,  // measure 19
1000
0010
0001
0100
,  // measure 20
1000
0010
0001
0100
,  // measure 21
1000
0010
0001
0100
,  // measure 22
0001
0010
1000
0100
,  // measure 23
0010
1000
0100
0010
,  // measure 24
0100
0001
0100
0010
,  // measure 25
1000
0001
0100
0010
,  // measure 26
0100
0001
0100
0010
,  // measure 27
1000
0001
0100
0010
,  // measure 28
0100
0001
0100
0010
,  // measure 29
0010
1000
0100
0010
,  // measure 30
0100
0001
0100
0001
,  // measure 31
1000
0010
0100
0010
,  // measure 32
0100
0010
0100
0010
,  // measure 33
0100
0001
1000
0001
,  // measure 34
1000
0010
0001
0100
,  // measure 35
0001
0100
1000
0010
,  // measure 36
1000
0010
0001
0100
,  // measure 37
1000
0100
0001
1000
,  // measure 38
0001
1000
0001
1000
,  // measure 39
0100
0001
1000
0001
,  // measure 40
1000
0010
0001
0100
,  // measure 41
1000
0100
0001
0010
,  // measure 42
1000
0010
0001
0100
,  // measure 43
1000
0010
0001
0100
,  // measure 44
0001
0100
1000
0010
,  // measure 45
0001
0010
0001
0100
,  // measure 46
0001
0100
0010
0100
,  // measure 47
0001
1000
0100
0010
,  // measure 48
0100
0001
0100
0010
,  // measure 49
0100
1000
0100
0010
,  // measure 50
1000
0001
0010
0100
,  // measure 51
0001
1000
0100
0010
,  // measure 52
0100
1000
0010
0100
,  // measure 53
1000
0001
0100
0010
,  // measure 54
0100
1000
0100
0010
,  // measure 55
1001
0100
2002
0000
,  // measure 56
0000
0000
3003
0020
,  // measure 57
0000
0030
0001
0000
1000
0000
0100
0000
,  // measure 58
1000
0010
0001
0100
,  // measure 59
0001
0010
1000
0001
,  // measure 60
1000
0100
0001
0010
,  // measure 61
0001
0010
1000
0010
,  // measure 62
1000
0010
0001
0100
,  // measure 63
1000
0010
1000
0100
,  // measure 64
0010
0001
1000
0010
,  // measure 65
1000
0001
0100
0010
,  // measure 66
1000
0001
0100
0010
,  // measure 67
0100
0001
0100
0010
,  // measure 68
1000
0010
0100
1000
,  // measure 69
0001
0001
1000
1000
,  // measure 70
0001
0010
0100
1000
;

//---------------dance-single - Standard----------------
#NOTES:
     dance-single:
     Standard:
     Medium:
     7:
     0.421148,0.429922,0.000000,0.000000,0.000000,369.000000,369.000000,0.000000,0.000000,0.000000,0.000000,0.421148,0.429922,0.000000,0.000000,0.000000,369.000000,369.000000,0.000000,0.000000,0.000000,0.000000:
0001
0010
0100
0000
0010
0000
0100
1000
,
0001
0100
0010
0000
0100
0000
0010
1000
,
0001
0100
0010
0000
0100
0000
0010
1000
,
1000
0100
0010
0000
0100
0000
0010
0001
,
1000
0010
0100
0000
0010
0000
0100
0001
,
1000
0100
0010
0000
0100
0000
0010
0001
,
1000
0010
0100
0000
0010
0000
0100
0001
,
0001
0010
0100
0000
0010
0000
0100
1000
,
0001
0100
0010
0000
0100
0000
0010
1000
,
1000
0010
0100
0000
0010
0000
0100
0001
,
0001
0100
0010
0000
0100
0000
0010
1000
,
1000
0100
0010
0000
0100
0000
0010
0001
,
0000
0001
0010
0000
0001
0000
0010
0100
,
0001
0010
0100
0000
0010
0000
0100
1000
,
0000
0001
0010
0000
0001
0000
0010
0100
,
0001
0010
0100
0000
0010
0000
0100
1000
,
0000
0001
0010
0000
0001
0000
0010
0100
,
0000
0001
0100
0000
0001
0000
0100
0010
,
0001
0000
1000
0000
0001
0000
0100
1000
,
0000
0001
0010
0000
0001
0000
0010
0100
,
0000
1000
0010
0000
1000
0000
0010
0100
,
0000
0001
0100
0000
0001
0000
0100
0010
,
0000
1000
0010
0000
1000
0000
0010
0100
,
0001
0010
0100
0000
0010
0000
0100
1000
,
1000
0010
0100
0000
0010
0000
0100
0001
,
0001
1000
0001
0000
0010
1000
0010
0001
,
0001
0010
0100
0000
0010
0000
0100
1000
,
0001
1000
0001
0000
0010
1000
0010
0001
,
0001
0010
0100
0000
0010
0000
0100
1000
,
0001
1000
0001
0000
0010
1000
0010
0001
,
0001
0010
0100
0000
0010
0000
0100
1000
,
1000
0100
0010
0000
0000
0000
0000
0000
,
0000
0000
0000
0000
0000
0000
0001
0000
,
0000
0000
1000
0000
0001
0000
0010
0001
,
0000
0001
0010
0000
0001
0000
0010
0100
,
0000
1000
0100
0000
1000
0000
0100
0010
,
0000
0001
0100
0000
0001
0000
0100
0010
,
0001
0100
0000
0000
0000
0000
0000
0000
,
0000
0000
0000
0000
0000
0000
0001
0000
,
0000
0000
1000
0000
0001
0000
0010
0001
,
0000
0001
0010
0000
0001
0000
0010
0100
,
0000
0001
0010
0000
0001
0000
0010
0100
,
0000
1000
0010
0000
1000
0000
0010
0100
,
0000
0001
0010
0000
0001
0000
0010
0100
,
0000
1000
0010
0000
1000
0000
0010
0100
,
0000
0001
0010
0000
0001
0000
0010
0100
,
0001
0100
0000
0000
0000
0000
0000
0000
,
0001
1000
0001
0000
0010
1000
0010
0001
,
0001
0010
0100
0000
0010
0000
0100
1000
,
1000
0010
0100
0000
0010
0000
0100
0001
,
1000
0100
0010
0000
0100
0000
0010
0001
,
1000
0100
0010
0000
0100
0000
0010
0001
,
0001
0010
0100
0000
0010
0000
0100
1000
,
1000
0010
0100
0000
0010
0000
0100
0001
,
0001
0010
0100
0000
0010
0000
0100
1000
,
0001
0100
0000
0000
0000
0000
0000
0000
,
0000
0000
0000
0000
0000
0000
0001
0000
,
0000
0000
1000
0000
0001
0000
0010
0001
,
0000
0001
0010
0000
0001
0000
0010
0100
,
0000
1000
0100
0000
1000
0000
0100
0010
,
0000
1000
0010
0000
1000
0000
0010
0100
,
1000
0100
0001
0000
0100
0000
1000
0010
,
0000
0001
0010
0000
0001
0000
0010
0100
,
1000
0100
0010
0000
0000
0000
0000
0000
,
0000
0000
1000
0100
1000
0010
0100
0001
,
0001
0010
0100
0000
0010
0000
0100
1000
,
0001
1000
0001
0000
0010
1000
0010
0001
,
0001
0010
0100
0000
0010
0000
0100
1000
,
0001
1000
0001
0000
0010
1000
0010
0001
,
0001
0010
0100
0000
0010
0000
0100
1000
,
1000
0100
0010
0000
0000
0000
0000
0000
,
0000
0000
0000
0000
0000
0000
0001
0000
,
;

//---------------dance-single - Heavy----------------
#NOTES:
     dance-single:
     Heavy:
     Hard:
     8:
     0.523867,0.458584,0.000000,0.000000,0.000000,459.000000,459.000000,0.000000,0.000000,0.000000,0.000000,0.523867,0.458584,0.000000,0.000000,0.000000,459.000000,459.000000,0.000000,0.000000,0.000000,0.000000:
1000
0010
1000
0100
1000
0000
0001
0100
,
0001
0100
0001
0010
0001
0000
1000
0010
,
1000
0010
1000
0100
1000
0000
0001
0100
,
1000
0010
1000
0100
1000
0000
0001
0100
,
0001
0010
0001
0100
0001
0000
1000
0100
,
1000
0010
1000
0100
1000
0000
0001
0100
,
0001
0010
0001
0100
0001
0000
1000
0100
,
1000
0010
1000
0100
1000
0000
0001
0100
,
1000
0100
1000
0010
1000
0000
0001
0010
,
0001
0100
0001
0010
0001
0000
1000
0010
,
1000
0100
1000
0010
1000
0000
0001
0010
,
0001
0010
0001
0100
0001
0000
1000
0100
,
0001
0100
0001
0100
0010
0000
0100
0001
,
1000
0010
1000
0100
1000
0000
0001
0100
,
0001
0100
0001
0100
0010
0000
0100
0001
,
1000
0010
1000
0100
1000
0000
0001
0100
,
0001
0100
0001
0100
0010
0000
0100
0001
,
1000
0100
1000
0100
0010
0000
0100
1000
,
0001
0010
0100
1000
0001
0000
0010
0100
,
0001
0100
0001
0100
0010
0000
0100
0001
,
1000
0010
1000
0010
0100
0000
0010
1000
,
1000
0010
1000
0010
0100
0000
0010
1000
,
0001
0010
0001
0010
0100
0000
0010
0001
,
1000
0010
1000
0100
1000
0000
0001
0100
,
1000
0100
1000
0010
1000
0000
0001
0010
,
1000
0001
0100
0001
0100
0010
0100
0010
,
1000
0010
1000
0100
1000
0000
0001
0100
,
1000
0001
0100
0001
0100
0010
0100
0010
,
1000
0010
1000
0100
1000
0000
0001
0100
,
1000
0001
0100
0001
0100
0010
0100
0010
,
1000
0010
1000
0100
1000
0000
0001
0100
,
0001
0010
0001
0000
0001
0000
0000
0000
,
0000
0000
0000
0000
0000
0000
1000
0000
,
0000
0000
0001
0010
0001
0000
0100
0010
,
0001
0100
0001
0100
0010
0000
0100
0001
,
1000
0010
1000
0010
0100
0000
0010
1000
,
1000
0010
1000
0010
0100
0000
0010
1000
,
0001
0100
0001
0000
0000
0000
0000
0000
,
0000
0000
0000
0000
0000
0000
1000
0000
,
0000
0000
0001
0010
0001
0000
0100
0010
,
0001
0100
0001
0100
0010
0000
0100
0001
,
1000
0100
1000
0100
0010
0000
0100
1000
,
0001
0010
0001
0010
0100
0000
0010
0001
,
0001
0100
0001
0100
0010
0000
0100
0001
,
0001
0010
0001
0010
0100
0000
0010
0001
,
0001
0010
0001
0010
0100
0000
0010
0001
,
0001
0100
0001
0000
0000
0000
0000
0000
,
1000
0001
0100
0001
0100
0010
0100
0010
,
1000
0010
1000
0100
1000
0000
0001
0100
,
0001
0010
0001
0100
0001
0000
1000
0100
,
0001
0010
0001
0100
0001
0000
1000
0100
,
1000
0100
1000
0010
1000
0000
0001
0010
,
0001
0100
0001
0010
0001
0000
1000
0010
,
0001
0010
0001
0100
0001
0000
1000
0100
,
0001
0010
0001
0100
0001
0000
1000
0100
,
0001
0100
0001
0000
0000
0000
0000
0000
,
0000
0000
0000
0000
0000
0000
1000
0000
,
0000
0000
0001
0010
0001
0000
0100
0010
,
0001
0100
0001
0100
0010
0000
0100
0001
,
0001
0100
0001
0100
0010
0000
0100
0001
,
0001
0100
0001
0100
0010
0000
0100
0001
,
1000
0100
0010
0100
0010
0000
0100
1000
,
0001
0100
0001
0100
0010
0000
0100
0001
,
0001
0010
0001
0000
0001
0000
0000
0000
,
0000
0001
0100
0010
1000
0010
0100
0001
,
1000
0010
1000
0100
1000
0000
0001
0100
,
1000
0001
0100
0001
0100
0010
0100
0010
,
1000
0010
1000
0100
1000
0000
0001
0100
,
1000
0001
0100
0001
0100
0010
0100
0010
,
1000
0010
1000
0100
1000
0000
0001
0100
,
0001
0010
0001
0000
0001
0000
0000
0000
,
0000
0000
0000
0000
0000
0000
1000
0000
,
;
