#VERSION:0.83;
#TITLE:Sensual Seduction;
#SUBTITLE:;
#ARTIST:Snoop Dog;
#TITLETRANSLIT:;
#SUBTITLETRANSLIT:;
#ARTISTTRANSLIT:;
#GENRE:;
#ORIGIN:;
#CREDIT:Gorilla v1.1.3 (Dancing Monkeys v1.06);
#BANNER:;
#BACKGROUND:;
#PREVIEWVID:;
#JACKET:;
#CDIMAGE:;
#DISCIMAGE:;
#LYRICSPATH:;
#CDTITLE:;
#MUSIC:onlymp3.app - Snoop Dogg Sensual Seduction Lyrics -peDZjs7ll5g-192k-1712848199.mp3;
#OFFSET:-0.184271;
#SAMPLESTART:50.096771;
#SAMPLELENGTH:12.000000;
#SELECTABLE:YES;
#BPMS:0.000=120.210;
#STOPS:;
#DELAYS:;
#WARPS:;
#TIMESIGNATURES:0.000=4=4;
#TICKCOUNTS:0.000=4;
#COMBOS:0.000=1;
#SPEEDS:0.000=1.600=0.000=0;
#SCROLLS:0.000=1.000;
#FAKES:;
#LABELS:0.000=Song Start;
#BGCHANGES:;
#KEYSOUNDS:;
#ATTACKS:
;

//---------------dance-single - Basic----------------
#NOTEDATA:;
#CHARTNAME:Basic;
#STEPSTYPE:dance-single;
#DESCRIPTION:Basic;
#CHARTSTYLE:;
#DIFFICULTY:Easy;
#METER:3;
#RADARVALUES:0.199085,0.195005,0.000000,0.044319,0.000000,283.000000,283.000000,0.000000,9.000000,0.000000,0.000000,0.000000,0.000000,0.000000,0.199085,0.195005,0.000000,0.044319,0.000000,283.000000,283.000000,0.000000,9.000000,0.000000,0.000000,0.000000,0.000000,0.000000;
#CREDIT:Basic;
#NOTES:
// measure 0
0000
0200
0000
0000
,  // measure 1
0000
0000
0302
0000
,  // measure 2
0000
0000
0203
0000
,  // measure 3
0300
0002
0000
0000
,  // measure 4
0003
0200
0000
0000
,  // measure 5
0300
0020
0000
0030
,  // measure 6
0000
0020
0000
0030
,  // measure 7
2000
0000
0000
3000
,  // measure 8
0000
1000
0000
0000
,  // measure 9
0000
0001
0000
0000
,  // measure 10
0010
0000
0000
0000
,  // measure 11
0100
0000
0000
0000
,  // measure 12
0001
0000
0000
0000
,  // measure 13
0010
0000
0000
0000
,  // measure 14
0000
1000
0000
0000
,  // measure 15
0000
0100
0000
0000
,  // measure 16
0000
0010
0000
0000
,  // measure 17
1000
0000
0000
0010
,  // measure 18
0000
0000
0100
0000
,  // measure 19
0001
0000
0010
0000
,  // measure 20
0001
0002
0000
0000
,  // measure 21
0000
0000
0003
0000
,  // measure 22
0001
0100
0001
0000
,  // measure 23
1000
0010
1000
0000
,  // measure 24
1000
0001
1000
0100
,  // measure 25
1000
0100
0010
0001
,  // measure 26
1000
0010
0100
0010
,  // measure 27
1000
1000
1000
0100
,  // measure 28
0100
0100
1000
0100
,  // measure 29
1000
0001
0100
0010
,  // measure 30
0001
1000
0010
1000
,  // measure 31
1000
0010
1000
0010
,  // measure 32
1000
0001
0100
0010
,  // measure 33
0000
0001
1000
0010
,  // measure 34
1000
0001
0100
0010
,  // measure 35
0001
1000
0010
0100
,  // measure 36
1000
0100
0010
0001
,  // measure 37
0001
0100
0001
0010
,  // measure 38
0001
0100
0001
0010
,  // measure 39
0001
0000
0000
0000
,  // measure 40
1000
0100
0010
0001
,  // measure 41
1000
0001
0100
0010
,  // measure 42
1000
0001
0100
0010
,  // measure 43
1000
0001
0010
0100
,  // measure 44
1000
0100
0010
0001
,  // measure 45
1000
0100
0010
0001
,  // measure 46
1000
0100
0010
0001
,  // measure 47
1000
0010
0100
0001
,  // measure 48
1000
0001
1000
0100
,  // measure 49
1000
0001
0100
0010
,  // measure 50
1000
0001
1000
0100
,  // measure 51
0001
0010
1000
0001
,  // measure 52
1000
0010
1000
0100
,  // measure 53
0001
0010
1000
0001
,  // measure 54
0001
1000
0010
1000
,  // measure 55
1000
0010
1000
0010
,  // measure 56
0001
0100
0001
0010
,  // measure 57
1000
0001
0100
0010
,  // measure 58
1000
0001
0010
0100
,  // measure 59
1000
0100
0010
0001
,  // measure 60
1000
0001
1000
0100
,  // measure 61
1000
0100
1000
0010
,  // measure 62
0001
1000
0010
1000
,  // measure 63
1000
0100
0010
0001
,  // measure 64
1000
0001
0100
0010
,  // measure 65
1000
0001
0010
0100
,  // measure 66
1000
0001
0100
0010
,  // measure 67
1000
0001
0100
0010
,  // measure 68
0001
1000
0010
0100
,  // measure 69
1000
0001
0010
0100
,  // measure 70
1000
0100
0010
0001
,  // measure 71
1000
0010
0100
0001
,  // measure 72
1000
0100
0010
0001
,  // measure 73
1000
0001
0100
0010
,  // measure 74
1000
0001
0010
0100
,  // measure 75
1000
0001
0010
0100
,  // measure 76
0001
1000
0010
0100
,  // measure 77
1000
0100
0010
0001
,  // measure 78
0001
0010
0100
1000
,  // measure 79
0001
0100
0010
1000
,  // measure 80
1000
0001
1000
0100
,  // measure 81
1000
0001
0100
0010
,  // measure 82
1000
0001
1000
0100
,  // measure 83
0001
0010
1000
0001
,  // measure 84
1000
0010
1000
0100
,  // measure 85
1000
0001
0100
0010
,  // measure 86
0001
1000
0001
0100
,  // measure 87
0001
0010
1000
0001
,  // measure 88
1000
0000
0000
0000
;

//---------------dance-single - Standard----------------
#NOTEDATA:;
#CHARTNAME:Standard;
#STEPSTYPE:dance-single;
#DESCRIPTION:Standard;
#CHARTSTYLE:;
#DIFFICULTY:Medium;
#METER:4;
#RADARVALUES:0.293351,0.343844,0.221596,0.024622,0.000000,417.000000,372.000000,45.000000,5.000000,0.000000,0.000000,0.000000,0.000000,0.000000,0.293351,0.343844,0.221596,0.024622,0.000000,417.000000,372.000000,45.000000,5.000000,0.000000,0.000000,0.000000,0.000000,0.000000;
#CREDIT:Standard;
#NOTES:
0000
0000
1000
0000
0000
0000
0000
0000
,
0000
0000
0001
0000
0000
0000
0000
0000
,
0000
0000
0001
0000
0000
0000
0000
0000
,
0000
0000
1000
0000
0000
0000
0000
0000
,
0000
0000
1000
0000
0000
0000
0000
0000
,
0000
0000
1000
0000
0000
0000
0000
0000
,
0000
0000
0001
0000
0000
0000
0000
0000
,
0000
0000
1000
0000
0000
0000
0000
0000
,
0200
0000
0001
0000
0000
0000
0000
0000
,
0320
0000
0001
0000
0000
0000
0000
0000
,
2030
0000
1000
0000
0000
0000
0000
0000
,
2000
0000
0001
0000
0000
0000
0000
0000
,
3200
0000
1000
0000
0000
0000
0000
0000
,
0302
0000
0001
0000
0000
0000
0000
0000
,
0003
0000
0000
0000
0002
0000
0000
0000
,
0000
0000
0000
0000
0000
0000
0003
0000
,
1000
0100
1000
0000
0000
0000
0000
0000
,
0001
0100
0001
0000
0000
0000
0000
0000
,
1000
0000
0001
0000
0010
0000
0000
0000
,
1000
0100
1000
0000
0000
0000
0000
0000
,
0000
0001
0100
0000
0001
0000
1000
0000
,
1000
0100
1000
0000
0000
0000
0000
0000
,
1000
0000
0001
0000
0100
0000
0010
0000
,
0001
1000
0100
0000
1000
0000
0000
0000
,
1000
0000
0101
0000
0100
0000
0010
0000
,
0001
0100
0001
0000
0100
0000
0001
0000
,
0001
1000
0010
0000
1000
0000
0001
0000
,
1000
0000
0101
0000
0100
0000
0010
0000
,
1000
0000
0011
0000
0010
0000
0100
0000
,
0001
0000
0101
0000
1000
0000
0100
0000
,
1000
0000
1100
0000
0001
0000
1000
0010
,
1000
0000
0101
0000
0001
0000
0010
0100
,
0001
0000
0101
0000
1000
0000
0100
0000
,
0001
0000
0100
0000
0010
0000
0100
0000
,
0001
0000
0101
0000
1000
0000
0100
0000
,
0001
0000
0101
0000
1000
0000
0100
0000
,
0001
0100
0001
0000
0100
0000
0001
0000
,
0001
1000
0010
0000
1000
0000
0010
0000
,
0001
1000
0100
0000
1000
0000
0100
0000
,
1000
0000
0000
0000
0000
0000
0000
0000
,
0001
0100
0001
0000
0100
0000
0001
0000
,
0001
0000
0101
0000
1000
0000
0100
0000
,
0001
0000
0011
0000
1000
0000
0010
0000
,
0001
0000
0011
0000
1000
0000
0010
0000
,
0001
0100
0001
0000
0100
0000
0001
0000
,
0001
0010
0100
0000
0010
0000
0001
0000
,
0001
0010
0100
0000
0010
0000
0001
0000
,
1000
0010
0100
0000
0010
0000
1000
0000
,
1000
0000
0101
0000
0100
0000
0010
0000
,
0001
0000
0101
0000
1000
0000
0100
0000
,
1000
0000
0101
0000
0100
0000
0010
0000
,
1000
0000
1100
0000
1000
0000
0001
0000
,
1000
0000
0101
0000
0100
0000
0010
0000
,
1000
0000
1100
0000
1000
0000
0001
0000
,
1000
0000
1100
0000
0001
0000
1000
0010
,
1000
0000
0101
0000
0001
0000
0010
0100
,
0001
1000
0010
0000
1000
0000
0010
0000
,
0001
0000
0101
0000
1000
0000
0100
0000
,
1000
0000
1100
0000
0001
0000
0100
0000
,
0001
0010
0100
0000
0010
0000
0001
0000
,
1000
0000
0101
0000
0100
0000
0010
0000
,
0001
0000
0110
0000
1000
0000
0100
0000
,
1000
0000
1100
0000
0001
0000
1000
0010
,
0001
0010
0100
0000
0010
0000
0001
0000
,
0001
0000
0101
0000
1000
0000
0100
0000
,
0001
0000
0011
0000
1000
0000
0010
0000
,
0001
0000
0101
0000
1000
0000
0100
0000
,
0001
0000
0101
0000
1000
0000
0100
0000
,
0001
0000
0011
0000
1000
0000
0010
0000
,
1000
0000
1100
0000
0001
0000
0100
0000
,
0001
0010
0100
0000
0010
0000
0001
0000
,
0001
0100
0010
0000
0100
0000
0001
0000
,
0001
0100
0001
0000
0100
0000
0001
0000
,
0001
0000
0101
0000
1000
0000
0100
0000
,
1000
0000
1100
0000
0001
0000
0100
0000
,
0001
0000
0101
0000
1000
0000
0100
0000
,
1000
0000
1010
0000
0001
0000
0010
0000
,
0001
0010
0100
0000
0010
0000
0001
0000
,
0001
0100
0010
0000
0100
0000
0001
0000
,
0001
0010
0100
0000
0010
0000
0001
0000
,
1000
0000
0101
0000
0100
0000
0010
0000
,
0001
0000
0101
0000
1000
0000
0100
0000
,
1000
0000
0101
0000
0100
0000
0010
0000
,
1000
0000
1100
0000
1000
0000
0001
0000
,
1000
0000
0101
0000
0100
0000
0010
0000
,
0001
0000
0101
0000
1000
0000
0100
0000
,
0001
0000
0110
0000
1000
0000
0101
0000
,
1000
0000
1100
0000
1000
0000
0001
0000
,
1000
0000
0100
0000
1000
0000
0100
0000
,
0000
0000
1000
0000
0100
0000
1000
0000
,
1000
0000
0100
0000
1000
0000
0100
0000
,
0000
0000
0001
0000
0100
0000
0001
0000
,
1000
0000
0100
0000
1000
0000
0100
0000
,
1000
0000
0100
0000
1000
0000
0100
0000
,
1000
0000
0010
0000
0100
0000
0010
1000
,
0001
0000
0010
0000
0100
0000
0010
0001
,
0001
0100
0001
0000
0100
0000
0001
0000
,
0001
0000
0101
0000
1000
0000
0100
0000
,
1000
0000
0100
0000
1000
0000
0100
0000
,
0001
0000
0100
0000
0010
0000
0100
0000
,
;

//---------------dance-single - Heavy----------------
#NOTEDATA:;
#CHARTNAME:Heavy;
#STEPSTYPE:dance-single;
#DESCRIPTION:Heavy;
#CHARTSTYLE:;
#DIFFICULTY:Hard;
#METER:5;
#RADARVALUES:0.298979,0.343844,0.280689,0.019697,0.000000,425.000000,368.000000,57.000000,4.000000,0.000000,0.000000,0.000000,0.000000,0.000000,0.298979,0.343844,0.280689,0.019697,0.000000,425.000000,368.000000,57.000000,4.000000,0.000000,0.000000,0.000000,0.000000,0.000000;
#CREDIT:Heavy;
#NOTES:
0000
0000
1000
0000
0000
0000
0000
0000
,
0000
0000
1000
0000
0000
0000
0000
0000
,
0000
0000
0001
0000
0000
0000
0000
0000
,
0000
0000
0001
0000
0000
0000
0000
0000
,
0000
0000
1000
0000
0000
0000
0000
0000
,
0000
0000
0001
0000
0000
0000
0000
0000
,
0000
0000
0001
0000
0000
0000
0000
0000
,
0000
0000
0001
0000
0000
0000
0000
0000
,
0002
0000
0001
0000
0000
0000
0000
0000
,
0002
0000
1000
0000
0000
0000
0000
0000
,
0023
0000
0001
0000
0000
0000
0000
0000
,
2030
0000
0001
0000
0000
0000
0000
0000
,
2000
0000
1000
0000
0000
0000
0000
0000
,
3002
0000
1000
0000
0000
0000
0000
0000
,
0003
0000
0000
0000
0200
0000
0000
0000
,
0000
0000
0000
0000
0000
0000
0300
0000
,
0000
0001
0010
0001
0000
0000
0000
0000
,
0000
1000
0010
1000
0000
0000
0000
0000
,
0000
0000
1100
0000
0010
0000
0000
0000
,
0000
0001
0010
0001
0000
0000
0000
0000
,
0000
0001
0100
0001
0000
0000
0010
0100
,
0000
0001
0010
0001
0000
0000
0000
0000
,
0001
0100
0001
0000
0010
0000
0100
0000
,
0001
1000
0010
0000
0100
0000
0000
0000
,
1000
0000
0011
0000
0100
0000
0001
0000
,
0000
0001
0100
0010
0100
0000
0001
0010
,
1000
0000
1100
0000
0001
0000
1000
0000
,
1000
0000
0011
0000
0100
0000
0001
0000
,
0001
0000
1010
0000
0100
0000
1000
0000
,
0000
0000
1010
0000
1000
0000
0001
0000
,
0001
0000
1010
0000
0001
0000
0100
0001
,
1000
0000
0011
0000
0100
0000
0001
0010
,
0000
0000
1010
0000
1000
0000
0001
0000
,
0001
0100
0010
0000
1000
0000
0100
0000
,
0000
0000
1010
0000
1000
0000
0001
0000
,
0000
0000
1100
0000
1000
0000
0001
0000
,
0000
0001
0100
0010
0100
0000
0001
0010
,
1000
0001
0010
0100
1000
0000
0001
0000
,
1000
0001
0100
0010
1000
0000
0001
0000
,
1000
0000
0000
0000
0000
0000
0000
0000
,
0000
0001
0100
0010
0100
0000
0001
0010
,
0000
0000
1010
0000
1000
0000
0001
0000
,
0000
0000
1010
0000
1000
0000
0001
0000
,
0000
0000
0011
0000
0001
0000
1000
0000
,
0000
0001
0100
0010
0100
0000
0001
0010
,
0001
0000
1001
0000
1000
0000
0001
0100
,
0001
0000
1001
0000
1000
0000
0001
0100
,
1000
0000
1001
0000
0001
0000
1000
0100
,
1000
0000
0011
0000
0100
0000
0001
0000
,
0000
0000
1010
0000
1000
0000
0001
0000
,
1000
0000
0011
0000
0100
0000
0001
0000
,
0000
0000
0101
0000
1000
0000
0001
0010
,
1000
0000
0011
0000
0100
0000
0001
0000
,
0000
0000
0101
0000
1000
0000
0001
0010
,
0001
0000
1010
0000
0001
0000
0100
0001
,
1000
0000
0011
0000
0100
0000
0001
0010
,
1000
0001
0010
0100
1000
0000
0001
0000
,
0000
0000
1010
0000
1000
0000
0001
0000
,
0000
0000
1010
0000
1000
0000
0001
0000
,
0001
0000
1001
0000
1000
0000
0001
0100
,
1000
0000
0011
0000
0100
0000
0001
0000
,
1000
0000
0011
0000
1000
0000
0001
0000
,
0001
0000
1010
0000
0001
0000
0100
0001
,
0001
0000
1001
0000
1000
0000
0001
0100
,
0000
0000
1010
0000
1000
0000
0001
0000
,
0000
0000
0101
0000
0001
0000
1000
0000
,
0000
0000
1100
0000
1000
0000
0001
0000
,
0000
0000
0011
0000
0001
0000
1000
0000
,
0000
0000
0101
0000
0001
0000
1000
0000
,
0000
0000
1010
0000
1000
0000
0001
0000
,
0001
0000
1001
0000
1000
0000
0001
0100
,
1000
0000
1001
0000
0001
0000
1000
0010
,
0000
0001
0100
0010
0100
0000
0001
0010
,
0000
0000
1010
0000
1000
0000
0001
0000
,
0000
0000
0011
0000
0001
0000
1000
0000
,
0000
0000
1010
0000
1000
0000
0001
0000
,
0000
0000
0011
0000
0001
0000
1000
0000
,
0001
0000
1001
0000
1000
0000
0001
0100
,
0001
0000
1001
0000
1000
0000
0001
0100
,
1000
0000
1001
0000
0001
0000
1000
0100
,
1000
0000
0011
0000
0100
0000
0001
0000
,
0000
0000
1010
0000
1000
0000
0001
0000
,
1000
0000
0011
0000
0100
0000
0001
0000
,
0000
0000
0101
0000
1000
0000
0001
0010
,
1000
0000
0011
0000
0100
0000
0001
0000
,
0000
0000
1010
0000
1000
0000
0001
0000
,
0001
0000
1001
0000
0100
0000
1001
0000
,
0000
0000
0101
0000
1000
0000
0001
0010
,
1000
0010
0100
0000
1000
0000
0100
0000
,
0000
0001
0100
0000
0010
0000
1000
0000
,
1000
0010
0100
0000
1000
0000
0100
0000
,
0000
1000
0100
0000
0010
0000
0100
0000
,
1000
0010
0100
0000
1000
0000
0100
0000
,
0001
0100
0010
0000
0001
0000
0010
0000
,
1000
0001
1000
0000
0001
0000
0100
0010
,
0001
1000
0001
0000
1000
0000
0010
0100
,
0000
0001
0100
0010
0100
0000
0001
0010
,
0000
0000
1010
0000
1000
0000
0001
0000
,
1000
0010
0100
0000
1000
0000
0100
0000
,
0001
0100
0010
0000
1000
0000
0100
0000
,
;
