#TITLE:Scissor Seven Season 3 - Opening Full;
#SUBTITLE:;
#ARTIST:Dancing Monkeys Project;
#TITLETRANSLIT:;
#SUBTITLETRANSLIT:;
#ARTISTTRANSLIT:;
#GENRE:;
#CREDIT:Gorilla v1.1.3 (Dancing Monkeys v1.06);
#BANNER:;
#BACKGROUND:;
#LYRICSPATH:;
#CDTITLE:;
#MUSIC:Scissor Seven Season 3 - Opening Full.mp3;
#OFFSET:-0.803854;
#SAMPLESTART:36.670856;
#SAMPLELENGTH:12.000000;
#SELECTABLE:YES;
#BPMS:0.000000=173.976074
;
#STOPS:
;
#BGCHANGES:;
#KEYSOUNDS:;
#ATTACKS:;

//---------------dance-single - Basic----------------
#NOTES:
     dance-single:
     Basic:
     Easy:
     3:
     0.218924,0.303651,0.000000,0.138417,0.000000,155.000000,155.000000,0.000000,14.000000,0.000000,0.000000,0.218924,0.303651,0.000000,0.138417,0.000000,155.000000,155.000000,0.000000,14.000000,0.000000,0.000000:
0000
0000
0000
0000
,
0000
0000
0000
0000
,
0000
0000
0000
0000
,
0000
0000
0000
0000
,
1000
0000
0000
0000
,
0020
0000
0000
0030
,
1000
1000
0010
0010
,
1000
1000
1000
0010
,
0010
0010
0001
0010
,
0001
1000
1000
0100
,
0020
0000
0000
0000
,
0000
0000
0000
0030
,
2000
0000
0000
0000
,
0000
0000
0000
0000
,
3000
0001
1000
0000
,
0001
0000
1000
0100
,
0001
0000
1000
0100
,
1000
0010
0010
0010
,
0001
0000
1000
0100
,
1000
0001
0001
0010
,
1000
1000
0100
0100
,
0001
0001
0010
0010
,
0001
1000
0001
0001
,
0001
0001
0001
1000
,
1000
0001
0001
1000
,
1000
0001
0001
0100
,
1000
0100
0010
0010
,
0001
0001
0001
1000
,
1000
1000
0100
0000
,
2000
0000
0000
3000
,
0001
0100
0010
0001
,
1000
0100
0010
1000
,
1000
0100
0100
2000
,
0000
0000
3000
0001
,
0000
0000
0010
0000
,
1000
0000
0000
0000
,
0010
0000
0001
0002
,
0000
0000
0003
0000
,
0100
0000
1000
0000
,
0001
0000
0000
0000
,
0000
2000
0000
3000
,
0000
0010
0001
0100
,
1000
1000
0010
0100
,
1000
0010
0001
0100
,
0001
0010
0002
0003
,
0010
0010
0001
0100
,
2000
0000
0000
3000
,
0001
1000
0100
0100
,
0100
0001
1000
0010
,
0002
0000
0000
0000
,
0000
0003
0010
1000
,
0100
0010
1000
0100
,
0001
0001
0001
1000
,
0002
0000
0003
0100
,
0001
0010
0002
0000
,
0003
1000
0100
0000
,
1000
1000
0010
0000
,
0020
0000
0000
0000
,
0000
0000
0000
0000
,
0000
0000
0000
0000
,
0000
0000
0000
0000
,
0030
1000
0000
0000
,
0100
0000
0000
0010
,
0000
0000
0100
0000
,
0000
0001
0000
0000
,
0100
0000
0000
0001
,
0000
0000
0200
0000
,
0000
0000
0000
0300
,
0000
0010
0000
0000
;
