#VERSION:0.83;
#TITLE:Save Your Tears;
#SUBTITLE:;
#ARTIST:The Weekend;
#TITLETRANSLIT:;
#SUBTITLETRANSLIT:;
#ARTISTTRANSLIT:;
#GENRE:;
#ORIGIN:;
#CREDIT:Gorilla v1.1.3 (Dancing Monkeys v1.06);
#BANNER:;
#BACKGROUND:;
#PREVIEWVID:;
#JACKET:;
#CDIMAGE:;
#DISCIMAGE:;
#LYRICSPATH:;
#CDTITLE:;
#MUSIC:Save Your Tears.mp3;
#OFFSET:-2.124979;
#SAMPLESTART:52.974976;
#SAMPLELENGTH:12.000000;
#SELECTABLE:YES;
#BPMS:0.000=117.994;
#STOPS:;
#DELAYS:;
#WARPS:;
#TIMESIGNATURES:0.000=4=4;
#TICKCOUNTS:0.000=4;
#COMBOS:0.000=1;
#SPEEDS:0.000=1.000=0.000=0;
#SCROLLS:0.000=1.000;
#FAKES:;
#LABELS:0.000=Song Start;
#BGCHANGES:;
#KEYSOUNDS:;
#ATTACKS:
;

//---------------dance-single - Basic----------------
#NOTEDATA:;
#CHARTNAME:Basic;
#STEPSTYPE:dance-single;
#DESCRIPTION:Basic;
#CHARTSTYLE:;
#DIFFICULTY:Easy;
#METER:3;
#RADARVALUES:0.145909,0.152657,0.000000,0.021886,0.000000,140.000000,140.000000,0.000000,3.000000,0.000000,0.000000,0.000000,0.000000,0.000000,0.145909,0.152657,0.000000,0.021886,0.000000,140.000000,140.000000,0.000000,3.000000,0.000000,0.000000,0.000000,0.000000,0.000000;
#CREDIT:Basic;
#NOTES:
// measure 0
0001
0000
0010
0100
,  // measure 1
0001
0000
0010
0100
,  // measure 2
1000
0000
0010
0100
,  // measure 3
0000
0001
0100
0010
,  // measure 4
1000
0001
0100
0010
,  // measure 5
0000
0000
0100
0010
,  // measure 6
0001
0000
0100
0010
,  // measure 7
1000
0001
0100
0010
,  // measure 8
1000
0001
0100
0010
,  // measure 9
0000
0000
1000
0010
,  // measure 10
1000
0000
0100
0010
,  // measure 11
0001
1000
0010
0100
,  // measure 12
0100
0000
0000
0000
,  // measure 13
0001
1000
0010
0010
,  // measure 14
0000
0000
0000
0000
,  // measure 15
1000
0001
0100
0010
,  // measure 16
0001
0000
0010
0000
,  // measure 17
1000
0000
0100
0010
,  // measure 18
0001
1000
0010
0010
,  // measure 19
0000
0001
0100
0010
,  // measure 20
0001
1000
0010
0100
,  // measure 21
0001
0100
0010
0000
,  // measure 22
1000
0000
0100
0010
,  // measure 23
1000
0100
0001
0000
,  // measure 24
1000
0001
0100
0010
,  // measure 25
0001
0100
0010
0000
,  // measure 26
1000
0000
0100
0010
,  // measure 27
1000
0100
1000
0100
,  // measure 28
0100
0000
1000
0010
,  // measure 29
0001
1000
0010
0010
,  // measure 30
0000
0000
0000
0000
,  // measure 31
1000
0001
0100
0010
,  // measure 32
0001
0100
0010
0010
,  // measure 33
1000
0000
0100
0010
,  // measure 34
0000
0000
0000
0000
,  // measure 35
1000
0100
1000
0100
,  // measure 36
0001
0010
0001
0010
,  // measure 37
0001
0100
0001
0100
,  // measure 38
0100
0100
0000
0000
,  // measure 39
0002
0003
0001
0000
,  // measure 40
0020
0030
0010
0000
,  // measure 41
1000
0010
1000
0000
,  // measure 42
1000
0100
1000
0000
,  // measure 43
0002
0003
1000
0000
,  // measure 44
0010
0000
0001
0001
,  // measure 45
0001
1000
0010
0010
,  // measure 46
0001
1000
1000
0000
;
