#VERSION:0.83;
#TITLE:royal flush;
#SUBTITLE:;
#ARTIST:Dancing Monkeys Project;
#TITLETRANSLIT:;
#SUBTITLETRANSLIT:;
#ARTISTTRANSLIT:;
#GENRE:;
#ORIGIN:;
#CREDIT:Gorilla v1.1.3 (Dancing Monkeys v1.06);
#BANNER:maxresdefault.png;
#BACKGROUND:husk__hazbin_hotel_by_teriopi_ddxbnqu-fullview.png;
#PREVIEWVID:;
#JACKET:;
#CDIMAGE:;
#DISCIMAGE:;
#LYRICSPATH:;
#CDTITLE:;
#MUSIC:royal flush.mp3;
#OFFSET:-1.324898;
#SAMPLESTART:48.200180;
#SAMPLELENGTH:12.000000;
#SELECTABLE:YES;
#BPMS:0.000=127.999;
#STOPS:;
#DELAYS:;
#WARPS:;
#TIMESIGNATURES:0.000=4=4;
#TICKCOUNTS:0.000=4;
#COMBOS:0.000=1;
#SPEEDS:0.000=2.000=0.000=0,
195.000=1.000=0.000=0;
#SCROLLS:0.000=1.000;
#FAKES:;
#LABELS:0.000=Song Start;
#BGCHANGES:;
#KEYSOUNDS:;
#ATTACKS:
;

//---------------dance-single - Basic----------------
#NOTEDATA:;
#CHARTNAME:Basic;
#STEPSTYPE:dance-single;
#DESCRIPTION:Basic;
#CHARTSTYLE:;
#DIFFICULTY:Easy;
#METER:5;
#RADARVALUES:0.266807,0.284294,0.045442,0.040897,0.000000,411.000000,401.000000,10.000000,9.000000,0.000000,0.000000,0.000000,0.000000,0.000000,0.266807,0.284294,0.045442,0.040897,0.000000,411.000000,401.000000,10.000000,9.000000,0.000000,0.000000,0.000000,0.000000,0.000000;
#CREDIT:Basic;
#NOTES:
// measure 0
1000
0000
1000
1000
,  // measure 1
1000
0001
1000
1000
,  // measure 2
1000
0001
1000
1000
,  // measure 3
0001
0000
0001
0001
,  // measure 4
1000
0000
1000
1000
,  // measure 5
0001
1000
0001
0001
,  // measure 6
1000
0001
0100
0010
,  // measure 7
2002
3003
1000
0000
,  // measure 8
0001
1000
0010
0100
,  // measure 9
0001
1000
0100
0010
,  // measure 10
0001
1000
0100
0010
,  // measure 11
1000
0001
0010
0100
,  // measure 12
1000
0001
0100
0010
,  // measure 13
1000
0001
0100
0010
,  // measure 14
0001
1000
0010
0001
,  // measure 15
0001
0100
0100
1000
,  // measure 16
1000
0100
1000
1000
,  // measure 17
1000
0001
1000
1000
,  // measure 18
0001
1000
0001
0001
,  // measure 19
0000
0001
0000
0010
,  // measure 20
1000
0000
1000
1000
,  // measure 21
1000
0000
1000
1000
,  // measure 22
0001
0000
0001
0001
,  // measure 23
0001
1000
0010
0100
,  // measure 24
1000
0010
1000
0001
,  // measure 25
0100
0010
0001
1000
,  // measure 26
0001
1000
0001
1000
,  // measure 27
0020
0000
0000
0000
,  // measure 28
0000
0000
0030
0001
,  // measure 29
1000
0001
1000
1000
,  // measure 30
0001
1000
0100
0001
,  // measure 31
1000
0001
1000
0010
,  // measure 32
1000
0010
1000
0010
,  // measure 33
0001
1000
0100
1000
,  // measure 34
0010
1000
0100
0001
,  // measure 35
1000
0010
0100
1000
,  // measure 36
0001
0010
1000
0010
,  // measure 37
1000
1000
0100
0010
,  // measure 38
0001
0100
0001
0001
,  // measure 39
0000
0010
0001
0100
,  // measure 40
1000
0101
0001
0010
,  // measure 41
0001
0010
1000
0100
,  // measure 42
1000
0101
0001
0010
,  // measure 43
0001
0010
1000
0100
,  // measure 44
1000
0101
0001
0010
,  // measure 45
0001
0010
1000
0100
,  // measure 46
1000
0100
0000
0001
,  // measure 47
0001
0001
2000
0000
,  // measure 48
0000
0000
3000
0000
,  // measure 49
2002
0000
0000
0000
,  // measure 50
0000
0000
0000
0000
,  // measure 51
0000
0000
3003
1000
,  // measure 52
0000
0020
0000
0001
,  // measure 53
0000
0000
0000
0030
,  // measure 54
1000
0001
1000
0100
,  // measure 55
0001
0100
1000
0100
,  // measure 56
0001
1000
0001
0010
,  // measure 57
1001
0010
0100
0010
,  // measure 58
1000
1000
0001
0010
,  // measure 59
0001
1000
0100
0010
,  // measure 60
1000
0001
0100
0001
,  // measure 61
1000
0010
1000
0010
,  // measure 62
0001
1000
0001
0010
,  // measure 63
1000
0010
0001
0100
,  // measure 64
1000
0001
1000
0100
,  // measure 65
0001
1000
0001
1000
,  // measure 66
0001
1000
0010
0100
,  // measure 67
1000
0010
1000
0100
,  // measure 68
0010
0002
0000
0000
,  // measure 69
0000
1003
0010
0100
,  // measure 70
0001
1000
0100
0001
,  // measure 71
1000
0001
1000
0001
,  // measure 72
1000
0001
0100
1000
,  // measure 73
0001
0100
1000
0010
,  // measure 74
0100
1000
0000
0010
,  // measure 75
0001
1000
0001
0010
,  // measure 76
1000
0010
0100
0010
,  // measure 77
1000
0001
1000
1000
,  // measure 78
0001
0010
0100
0010
,  // measure 79
1000
0010
1000
0010
,  // measure 80
0001
0100
0001
0100
,  // measure 81
1000
0010
1000
0010
,  // measure 82
1000
0100
0010
0100
,  // measure 83
0001
1000
0001
0010
,  // measure 84
1000
0010
1000
0010
,  // measure 85
1000
0100
1000
0100
,  // measure 86
0001
0010
0100
0010
,  // measure 87
1000
0001
1000
1000
,  // measure 88
0001
0010
0100
0001
,  // measure 89
1000
0010
0001
1020
,  // measure 90
0000
1000
0000
0000
,  // measure 91
0000
0000
0000
1000
,  // measure 92
0000
0000
0000
0130
,  // measure 93
1000
0001
1000
1000
,  // measure 94
0001
0010
0100
0010
,  // measure 95
1000
0010
0000
0001
,  // measure 96
1000
0100
0010
0001
,  // measure 97
1000
0010
1000
0001
,  // measure 98
1000
0001
0100
0010
,  // measure 99
1000
0010
1000
0001
,  // measure 100
1000
0010
0100
0001
,  // measure 101
0010
1000
0010
0100
,  // measure 102
0000
0101
0010
0001
,  // measure 103
1000
0100
0001
0010
,  // measure 104
1001
0100
0001
1000
,  // measure 105
0100
0010
0100
0001
,  // measure 106
1000
0001
0010
0100
,  // measure 107
1000
0100
0001
0100
,  // measure 108
1000
0101
0010
1000
,  // measure 109
0001
1000
0010
0100
,  // measure 110
0001
1000
0000
0010
,  // measure 111
1000
0100
0001
0100
,  // measure 112
0010
1000
0001
0010
,  // measure 113
0100
1000
0001
0010
;

//---------------dance-single - Standard----------------
#NOTEDATA:;
#CHARTNAME:Standard;
#STEPSTYPE:dance-single;
#DESCRIPTION:Standard;
#CHARTSTYLE:;
#DIFFICULTY:Medium;
#METER:6;
#RADARVALUES:0.320687,0.402612,0.049986,0.027265,0.000000,494.000000,483.000000,11.000000,6.000000,0.000000,0.000000,0.000000,0.000000,0.000000,0.320687,0.402612,0.049986,0.027265,0.000000,494.000000,483.000000,11.000000,6.000000,0.000000,0.000000,0.000000,0.000000,0.000000;
#CREDIT:Standard;
#NOTES:
0001
0000
0000
0000
0001
0000
0001
0000
,
1000
0000
0000
0000
1000
0000
1000
0000
,
0001
0000
0000
0000
0001
0000
0001
0000
,
1000
0000
0000
0000
1000
0000
1000
0000
,
0001
0000
0000
0000
0001
0000
0001
0000
,
1000
0000
0000
0000
1000
0000
1000
0000
,
0020
0000
0001
0000
0000
0000
0000
0000
,
0000
0000
0031
0000
0010
0100
0000
0000
,
1000
0000
0100
0000
0010
0100
0010
0000
,
0001
0000
0010
0000
0100
0010
0100
0000
,
1000
0000
0010
0000
0100
0010
0100
0000
,
0001
0000
0100
0000
0010
0100
0010
0000
,
1000
0000
0010
0000
0100
0010
0100
0000
,
0001
0000
0010
0000
0100
0010
0100
0000
,
1000
0000
0001
1000
0010
0000
1000
0001
,
0001
0100
0001
1000
1000
0000
0010
0000
,
0001
0000
0000
0010
0100
0000
0100
0000
,
0001
0000
0000
0000
0001
0000
0001
0000
,
0001
0000
0000
0000
0001
0000
0001
0000
,
0000
1000
0001
0000
1000
0000
0010
0000
,
0001
0000
0000
0000
0001
0000
0001
0000
,
1000
0000
0000
0000
1000
0000
1000
0000
,
0001
0000
0000
0000
0001
0000
0001
0000
,
0001
1000
0010
0000
0000
0000
0100
0000
,
0000
0000
0000
0000
0000
0000
0001
0000
,
0000
0000
0000
0000
0000
0000
1000
0000
,
0000
0000
0000
0000
0000
0000
0001
0000
,
2000
0000
0000
0000
0000
0000
1000
0000
,
0000
0000
0000
0000
3000
0000
1000
0000
,
0001
0000
0000
0000
0001
0000
0001
0000
,
0001
0000
1000
0000
0000
0000
0010
0100
,
0001
0000
1100
0000
0001
0100
0001
0100
,
0001
0000
0100
0000
0010
0100
0001
1000
,
0001
0100
0001
1000
1000
0000
0010
0000
,
1000
0001
1000
0100
1000
0001
0100
0000
,
0001
0100
0001
1000
1000
0000
0010
0000
,
0001
0000
0100
0000
0010
0100
0001
1000
,
1000
0001
1000
0100
1000
0001
0100
0000
,
1000
0000
0100
0000
1000
0100
0001
0100
,
0000
1000
0001
1000
0100
0010
0001
0010
,
1000
0000
0110
0000
0100
0000
1001
0000
,
1000
0000
1010
0000
1000
0001
0100
0001
,
1000
0000
0110
0000
0100
0000
1001
0000
,
1000
0000
1010
0000
1000
0001
0100
0001
,
1000
0000
0110
0000
0100
0000
1001
0000
,
1000
0000
1010
0000
1000
0001
0100
0001
,
0001
0000
0011
0000
0000
0010
0100
0001
,
0001
0100
0001
0000
0000
0000
0000
0000
,
0000
0000
0000
0000
0000
0000
0001
0000
,
0200
0000
0000
0000
0000
0000
0001
0000
,
0300
0000
0000
0000
0200
0000
0001
0000
,
0000
0000
0000
0000
0000
0000
0001
0000
,
0000
0000
0200
0000
0000
0000
1000
0000
,
0000
0000
0000
0000
0000
0000
0300
0100
,
1000
0000
0100
0000
1000
0000
0010
0100
,
0000
1000
0010
1000
0100
1000
0000
0000
,
0001
0000
0010
0100
1000
0000
0100
0000
,
0001
0000
1000
0100
0000
0000
0010
0001
,
1000
0100
1000
0000
0100
0000
0000
0000
,
1000
0000
0100
0000
0010
0001
0010
0001
,
1000
0001
1000
0100
1000
0001
0100
0000
,
0001
0000
0100
0000
0010
0100
0001
1000
,
0001
0000
0010
0100
1000
0000
0100
0000
,
1000
0001
0100
0000
0000
0001
0000
0000
,
1000
0000
0000
0010
0100
0001
0000
0100
,
1000
0000
0000
0010
0100
0001
0000
0100
,
0001
0000
1000
0000
0000
0000
0010
0100
,
1000
0000
0100
0000
1000
0000
0010
0100
,
0001
1000
0020
0000
0000
0000
0000
0000
,
0000
0000
0030
1000
0010
0000
0000
1000
,
0001
0000
1000
0000
0000
0000
0010
0100
,
0001
0000
0000
0000
0001
0000
0001
0000
,
0001
0000
0000
0010
0100
0000
0100
0000
,
0001
0000
0000
0010
0100
0000
0100
0000
,
0001
1000
0010
0000
0000
0000
0100
0000
,
0001
0000
0010
0100
1000
0000
0100
0000
,
1000
0001
0100
0000
0000
0001
0000
0000
,
0001
0000
0000
0000
0001
0000
0001
0000
,
1000
0000
0001
0000
0100
0010
1000
0001
,
0001
0000
0100
0000
0010
0100
0001
1000
,
1000
0000
0100
0000
0010
0100
1000
0001
,
0001
0000
0100
0000
0010
0100
0001
1000
,
0002
0000
0003
0000
0000
1000
0010
1000
,
0001
0000
0010
0100
1000
0000
0100
0000
,
0001
0000
0100
0000
0010
0100
0001
1000
,
1000
0000
0100
0000
0010
0100
1000
0001
,
1000
0000
0001
0000
0100
0010
1000
0001
,
0001
0000
0000
0000
0001
0000
0001
0000
,
0000
0000
0000
0000
0000
0000
0001
0000
,
0000
0000
0000
0000
0000
0000
0020
0000
,
0000
0000
0000
0000
0000
0000
0001
0000
,
0000
0000
0000
0000
0000
0000
0001
0000
,
0000
0000
0001
0000
0000
0000
0130
0000
,
0001
0000
0000
0000
0001
0000
0001
0000
,
1000
0000
0001
0000
0100
0010
1000
0001
,
1000
0000
0001
0100
0000
0010
0100
0010
,
1000
0000
0100
0010
0001
0100
0100
0010
,
1000
0000
0000
0010
0100
0001
0000
0100
,
0000
0001
0100
0010
1000
0000
1000
0001
,
1000
0000
0000
0010
0100
0001
0000
0100
,
1000
0000
0001
0100
0000
0010
0100
0010
,
0001
0000
0000
0100
1000
0100
0010
0000
,
0000
0000
0001
0100
0001
0000
0001
1000
,
1000
0000
0100
0010
0001
0100
0100
0010
,
0001
0000
0100
0010
1000
0100
0100
0010
,
1000
0000
0010
0100
0001
0010
0010
0100
,
0001
1000
0001
0100
0010
1000
0010
0100
,
1000
0000
0100
0010
0001
0100
0100
0010
,
0001
0010
0010
0001
1000
0000
0001
0010
,
1000
0100
0100
1000
0001
0000
1000
0100
,
0001
1000
0010
0000
0000
0000
0100
0000
,
0000
0000
0000
0000
0000
0000
0000
0000
,
;

//---------------dance-single - Heavy----------------
#NOTEDATA:;
#CHARTNAME:Heavy;
#STEPSTYPE:dance-single;
#DESCRIPTION:Heavy;
#CHARTSTYLE:;
#DIFFICULTY:Hard;
#METER:8;
#RADARVALUES:0.460907,0.428741,0.049986,0.013632,0.000000,710.000000,699.000000,11.000000,3.000000,0.000000,0.000000,0.000000,0.000000,0.000000,0.460907,0.428741,0.049986,0.013632,0.000000,710.000000,699.000000,11.000000,3.000000,0.000000,0.000000,0.000000,0.000000,0.000000;
#CREDIT:Heavy;
#NOTES:
0001
0000
0010
0100
0100
0000
0100
0100
,
0001
0000
0100
0010
0010
0000
0010
0010
,
1000
0000
0100
0010
0010
0000
0010
0010
,
0001
0000
0100
0010
0010
0000
0010
0010
,
0001
0000
0010
0100
0100
0000
0100
0100
,
0001
0000
0100
0010
0010
0000
0010
0010
,
0200
0000
0100
0000
0100
0000
0000
0000
,
0000
0000
1300
0010
1000
0010
0100
0010
,
0001
1000
0100
0010
0001
0010
0001
1000
,
0001
1000
0100
0010
0001
0010
0001
1000
,
1000
0001
0100
0010
1000
0010
1000
0001
,
1000
0001
0010
0100
1000
0100
1000
0001
,
1000
0001
0100
0010
1000
0010
1000
0001
,
1000
0001
0100
0010
1000
0010
1000
0001
,
0001
1000
0010
0100
0010
0100
0001
1000
,
1000
0010
0100
0001
0001
0010
0001
0000
,
1000
0100
0010
1000
0010
0000
0010
0010
,
0001
0000
0010
0100
0100
0000
0100
0100
,
1000
0000
0010
0100
0100
0000
0100
0100
,
0001
1000
0001
0000
0010
0000
0100
0001
,
0001
0000
0010
0100
0100
0000
0100
0100
,
1000
0000
0010
0100
0100
0000
0100
0100
,
1000
0000
0010
0100
0100
0000
0100
0100
,
1000
0010
0100
0001
0010
0000
0001
0001
,
0001
0000
0000
0000
0001
0000
0001
0000
,
0001
0000
0000
0000
0001
0000
0001
0000
,
0001
0000
0000
0000
0001
0000
0001
0000
,
0020
0000
0000
0000
1000
0000
1000
0000
,
1000
0000
0000
0000
1030
0000
1000
0000
,
0001
0000
0010
0100
0100
0000
0100
0100
,
0001
0010
0001
0000
0010
0001
0010
0001
,
0001
0000
0110
0000
0100
0010
1000
0001
,
0001
0010
0100
0000
0010
0001
1000
0001
,
1000
0010
0100
0001
0001
0010
0001
0000
,
0001
0010
0001
0010
0100
1000
0001
0100
,
1000
0010
0100
0001
0001
0010
0001
0000
,
0001
0010
0100
0000
0010
0001
1000
0001
,
0001
0010
0001
0010
0100
1000
0001
0100
,
1000
0100
1000
0000
0100
1000
0000
0100
,
0000
0001
1000
0010
0100
0010
1000
0001
,
0001
0000
0011
0000
0100
0000
0110
0000
,
1000
0000
1001
0000
0001
0010
0001
1000
,
0001
0000
0011
0000
0100
0000
0110
0000
,
1000
0000
1001
0000
0001
0010
0001
1000
,
0001
0000
0011
0000
0100
0000
0110
0000
,
1000
0000
1001
0000
0001
0010
0001
1000
,
0001
0000
0011
0000
0010
0100
0001
1000
,
1000
0100
1000
0010
1000
0000
1000
0000
,
0001
0000
0000
0000
0001
0000
0001
0000
,
2000
0000
0010
0000
0100
0000
0100
0000
,
3001
0000
0010
0100
0020
0000
0100
0000
,
0001
0000
0100
0000
0010
0000
0010
0000
,
1000
0000
0020
0000
0010
0000
0010
0000
,
0001
0000
0000
0000
0100
0000
0031
1000
,
0001
0010
0100
1000
0010
1000
0100
1000
,
1000
0010
1000
0010
0001
0100
0010
0001
,
1000
0001
1000
0001
1000
0000
0010
0100
,
0001
0010
0100
0010
0001
0100
0010
0100
,
1000
0010
0100
0001
1000
0100
1000
0000
,
0001
0000
1000
0000
0001
0010
0001
0100
,
0001
0010
0001
0010
0100
1000
0001
0100
,
0001
0010
0100
0000
0010
0001
1000
0001
,
1000
0001
1000
0001
1000
0000
0010
0100
,
0001
1000
0100
0100
0000
1000
0100
0010
,
0001
1000
0000
0100
1000
0100
1000
0010
,
1000
0001
0000
0010
0001
0010
0001
0100
,
0001
0010
0001
0000
0010
0001
0010
0001
,
0001
0010
0100
1000
0010
1000
0100
1000
,
0001
1000
0020
0000
0010
0000
0100
0000
,
0001
0000
0030
1000
0100
0100
1000
0010
,
0001
0010
0001
0000
0010
0001
0010
0001
,
0001
0000
0010
0100
0100
0000
0100
0100
,
1000
0100
0010
1000
0010
0000
0010
0010
,
1000
0010
0100
1000
0100
0000
0100
0100
,
1000
0010
0100
0001
0010
0000
0001
0001
,
1000
0001
1000
0001
1000
0000
0010
0100
,
0001
1000
0100
0100
0000
1000
0100
0010
,
0001
0000
0010
0100
0100
0000
0100
0100
,
0001
0010
1000
0010
0001
1000
0100
0010
,
0001
0010
0100
0000
0010
0001
1000
0001
,
0001
0100
0010
0000
0100
0001
1000
0001
,
0001
0010
0100
0000
0010
0001
1000
0001
,
2000
0000
3000
0010
0100
0001
0100
0010
,
1000
0001
1000
0001
1000
0000
0010
0100
,
0001
0010
0100
0000
0010
0001
1000
0001
,
1000
0100
0010
0000
0100
1000
0001
1000
,
0001
0010
1000
0010
0001
1000
0100
0010
,
0001
0000
0010
0100
0100
0000
0100
0100
,
0001
0000
0000
0000
0001
0000
0001
0000
,
0001
0000
0000
0000
0001
0000
2000
0000
,
0001
0000
0000
0000
0001
0000
0001
0000
,
0001
0000
0000
0000
0001
0000
0001
0000
,
0001
0000
0001
0000
1000
0000
3001
0000
,
0001
0000
0010
0100
0100
0000
0100
0100
,
0001
0010
1000
0010
0001
1000
0100
0010
,
0001
1000
0001
0010
0001
1000
0100
1000
,
0001
0100
0001
0010
0100
1000
1000
0100
,
0001
1000
0000
0100
1000
0100
1000
0010
,
1000
0010
0100
0001
1000
0001
0001
0010
,
0001
1000
0000
0100
1000
0100
1000
0010
,
0001
1000
0001
0010
0001
1000
0100
1000
,
0001
0100
0010
0100
0010
0100
0001
0100
,
0000
0000
0001
1000
0010
1000
1000
0010
,
0001
0100
0001
0010
0100
1000
1000
0100
,
0001
0010
0001
0100
0010
1000
1000
0010
,
0001
0010
0001
0100
0010
1000
1000
0010
,
1000
0010
1000
0001
0100
0010
0100
0001
,
0001
0100
0001
0010
0100
1000
1000
0100
,
0001
0010
0010
0001
0010
0000
0001
0100
,
1000
0010
0010
1000
0010
0000
1000
0100
,
1000
0010
0100
0001
0010
0000
0001
0001
,
1000
0000
0000
0000
0000
0000
0000
0000
,
;
