#VERSION:0.83;
#TITLE:Root Of All Evil Silva Hound ft. Erica Lindbeck and The Stupendium;
#SUBTITLE:;
#ARTIST:Dancing Monkeys Project;
#TITLETRANSLIT:;
#SUBTITLETRANSLIT:;
#ARTISTTRANSLIT:;
#GENRE:;
#ORIGIN:;
#CREDIT:Gorilla v1.1.3 (Dancing Monkeys v1.06);
#BANNER:Geeky-Waffles-Helluva-Boss-Pilot-Review-Millie-Blitzo-Moxxie.png;
#BACKGROUND:wp11583350.jpg;
#PREVIEWVID:;
#JACKET:;
#CDIMAGE:;
#DISCIMAGE:;
#LYRICSPATH:;
#CDTITLE:;
#MUSIC:Root Of All Evil Silva Hound ft. Erica Lindbeck and The Stupendium.mp3;
#OFFSET:-0.574875;
#SAMPLESTART:45.264374;
#SAMPLELENGTH:12.000000;
#SELECTABLE:YES;
#BPMS:0.000=145.001;
#STOPS:;
#DELAYS:;
#WARPS:;
#TIMESIGNATURES:0.000=4=4;
#TICKCOUNTS:0.000=4;
#COMBOS:0.000=1;
#SPEEDS:0.000=1.000=0.000=0;
#SCROLLS:0.000=1.000;
#FAKES:;
#LABELS:0.000=Song Start;
#BGCHANGES:;
#KEYSOUNDS:;
#ATTACKS:
;

//---------------dance-single - Basic----------------
#NOTEDATA:;
#CHARTNAME:Basic;
#STEPSTYPE:dance-single;
#DESCRIPTION:Basic;
#CHARTSTYLE:;
#DIFFICULTY:Easy;
#METER:4;
#RADARVALUES:0.288075,0.317577,0.049442,0.056505,0.000000,571.000000,557.000000,14.000000,16.000000,0.000000,0.000000,0.000000,0.000000,0.000000,0.288075,0.317577,0.049442,0.056505,0.000000,571.000000,557.000000,14.000000,16.000000,0.000000,0.000000,0.000000,0.000000,0.000000;
#CREDIT:Basic;
#NOTES:
// measure 0
0000
0000
0000
0000
,  // measure 1
1000
0000
0000
0000
,  // measure 2
1000
0000
0000
0000
,  // measure 3
1000
0000
0000
0001
,  // measure 4
0000
0001
0100
0000
,  // measure 5
0001
1000
1000
0010
,  // measure 6
1000
0100
0001
0100
,  // measure 7
0010
1000
0010
1000
,  // measure 8
0100
0001
0100
0001
,  // measure 9
0100
1000
0001
1000
,  // measure 10
0001
0100
0001
0100
,  // measure 11
1000
0010
0001
0010
,  // measure 12
1000
0001
0100
0000
,  // measure 13
0100
1000
0001
1000
,  // measure 14
1000
0100
0001
0100
,  // measure 15
0010
1000
0010
1000
,  // measure 16
0010
0001
0100
0000
,  // measure 17
0010
1000
0010
1000
,  // measure 18
0010
0100
0001
0100
,  // measure 19
1000
0010
0100
0010
,  // measure 20
0000
0001
0100
1000
,  // measure 21
1000
1000
0010
1000
,  // measure 22
1000
0000
0010
0001
,  // measure 23
1000
0001
0010
0100
,  // measure 24
0001
0100
0000
1000
,  // measure 25
1000
1000
0010
1000
,  // measure 26
0000
1000
0001
1000
,  // measure 27
0001
0010
0001
1000
,  // measure 28
0001
0100
0010
0001
,  // measure 29
1000
1000
0010
0001
,  // measure 30
1000
1000
0010
0100
,  // measure 31
0001
0010
0001
1000
,  // measure 32
0100
0010
0001
1000
,  // measure 33
1000
1000
0010
1000
,  // measure 34
0000
1000
0001
1000
,  // measure 35
0010
0010
0100
0010
,  // measure 36
0000
0001
0100
0000
,  // measure 37
1000
0001
0010
0100
,  // measure 38
1000
0001
0100
1000
,  // measure 39
0001
0100
0100
0010
,  // measure 40
0100
0001
0100
0000
,  // measure 41
0100
1000
0010
1000
,  // measure 42
0001
0010
0100
1000
,  // measure 43
0001
0100
1000
0001
,  // measure 44
0100
0001
0100
0000
,  // measure 45
0100
0001
0010
1000
,  // measure 46
0001
0010
0100
1000
,  // measure 47
0001
1000
0100
0010
,  // measure 48
0100
0001
0100
0001
,  // measure 49
0100
0001
0010
1000
,  // measure 50
0001
0010
0100
1000
,  // measure 51
0010
0001
0100
0010
,  // measure 52
1000
0001
0010
0001
,  // measure 53
1000
0000
0010
0100
,  // measure 54
1000
0100
0001
0100
,  // measure 55
0010
1000
0010
2001
,  // measure 56
0000
3000
0001
0000
0100
0000
0010
0000
,  // measure 57
0100
1000
0001
1000
,  // measure 58
1000
0001
0100
0100
,  // measure 59
1000
0010
0001
0010
,  // measure 60
1000
0001
0100
0010
,  // measure 61
0100
1000
0010
1000
,  // measure 62
0001
1000
0100
0001
,  // measure 63
0100
1000
0100
0010
,  // measure 64
0100
0001
0100
0000
,  // measure 65
0010
1000
0010
1000
,  // measure 66
0001
0100
0001
1000
,  // measure 67
0001
0010
0100
0010
,  // measure 68
0100
1000
0001
0100
,  // measure 69
0001
1000
0001
1000
,  // measure 70
0001
0100
0010
0100
,  // measure 71
0001
0100
0010
1000
,  // measure 72
0100
0001
0100
0010
,  // measure 73
0001
1000
0010
1000
,  // measure 74
0001
1000
0100
1000
,  // measure 75
0001
0100
0001
1000
,  // measure 76
0100
0001
0100
0001
,  // measure 77
1000
0001
0100
0001
,  // measure 78
0100
1000
0001
1000
,  // measure 79
0001
0010
0001
1000
,  // measure 80
0010
0100
0001
0010
,  // measure 81
1000
0100
0010
1000
,  // measure 82
0100
0001
1000
0010
,  // measure 83
1000
0001
0010
1000
,  // measure 84
0010
1000
0100
0010
,  // measure 85
1001
0100
0010
1000
,  // measure 86
0001
1000
0010
0100
,  // measure 87
0001
1000
0001
0010
,  // measure 88
0100
0001
0100
1000
,  // measure 89
0010
1000
0010
1000
,  // measure 90
0001
1000
0100
0001
,  // measure 91
1000
0001
0100
0010
,  // measure 92
1000
0001
0100
0000
,  // measure 93
1000
0001
1000
0100
,  // measure 94
0000
0000
0000
0001
,  // measure 95
1000
0001
0100
1000
,  // measure 96
0010
0001
0100
0000
,  // measure 97
0100
0001
0010
1000
,  // measure 98
0010
1000
0100
0001
,  // measure 99
1000
0010
0100
0010
,  // measure 100
2002
0000
0000
3003
,  // measure 101
0100
0010
1000
0100
,  // measure 102
0010
0100
0001
0100
,  // measure 103
1000
0001
0010
2002
,  // measure 104
0000
3003
0200
0000
,  // measure 105
0300
0001
1000
0010
,  // measure 106
1000
0100
0001
1000
,  // measure 107
0001
0010
1000
0010
,  // measure 108
0100
0001
0100
0010
,  // measure 109
0100
1000
0010
1000
,  // measure 110
0001
0010
1000
0010
,  // measure 111
0001
1000
0100
1000
,  // measure 112
0100
0001
0100
0000
,  // measure 113
0010
1000
0010
1000
,  // measure 114
0100
1000
0001
1001
,  // measure 115
1001
0010
0100
0010
,  // measure 116
1000
0010
0100
0010
,  // measure 117
0020
0000
0000
0000
,  // measure 118
0000
0000
0000
0030
,  // measure 119
0001
1000
0010
2002
,  // measure 120
0000
0000
0000
0000
,  // measure 121
0000
0000
0000
0000
,  // measure 122
0000
0000
3003
1000
,  // measure 123
1000
0001
0100
0020
,  // measure 124
0000
0000
0000
0000
,  // measure 125
0000
0000
0000
0000
,  // measure 126
0000
0000
0000
0000
,  // measure 127
0000
0000
0000
0000
,  // measure 128
0000
0230
0000
0000
,  // measure 129
0000
0000
0320
1000
,  // measure 130
0000
0000
0000
0000
,  // measure 131
0000
0000
0030
0000
,  // measure 132
0001
1000
0100
0001
,  // measure 133
0001
1000
0001
0001
,  // measure 134
1000
0001
0100
1000
,  // measure 135
0001
0010
0100
0100
,  // measure 136
1000
0000
0010
0100
,  // measure 137
0001
1000
0101
0001
,  // measure 138
0001
1000
0010
0001
,  // measure 139
1000
0100
0010
2002
,  // measure 140
0000
0000
3003
0001
,  // measure 141
1000
0001
1010
1000
,  // measure 142
1000
0001
1010
1000
,  // measure 143
0001
0010
0100
0100
,  // measure 144
0001
1000
0100
0010
,  // measure 145
0001
1000
0100
0001
,  // measure 146
1000
0001
0100
1000
,  // measure 147
0001
0010
0100
0100
,  // measure 148
0001
1000
0100
0001
,  // measure 149
0001
1000
0100
0001
,  // measure 150
0001
1000
0010
0001
,  // measure 151
0001
0010
0100
0100
,  // measure 152
0001
1000
0100
0001
,  // measure 153
1000
0001
0100
1000
,  // measure 154
0001
1000
0010
0001
,  // measure 155
0001
0010
0100
0100
,  // measure 156
0001
0100
1001
0010
,  // measure 157
0100
0010
1000
0010
,  // measure 158
0100
0100
1001
0010
,  // measure 159
1000
0100
0010
0001
,  // measure 160
0100
1000
0001
1000
,  // measure 161
0100
1000
0010
0001
,  // measure 162
2002
0000
0000
0000
,  // measure 163
0000
0000
3003
0000
;

//---------------dance-single - Standard----------------
#NOTEDATA:;
#CHARTNAME:Standard;
#STEPSTYPE:dance-single;
#DESCRIPTION:Standard;
#CHARTSTYLE:;
#DIFFICULTY:Medium;
#METER:6;
#RADARVALUES:0.366275,0.442153,0.289589,0.017658,0.000000,726.000000,644.000000,82.000000,5.000000,0.000000,0.000000,0.000000,0.000000,0.000000,0.366275,0.442153,0.289589,0.017658,0.000000,726.000000,644.000000,82.000000,5.000000,0.000000,0.000000,0.000000,0.000000,0.000000;
#CREDIT:Standard;
#NOTES:
0000
0000
0000
0000
0000
0000
0000
0000
,
1000
0000
0000
0000
0000
0000
0000
0000
,
1000
0000
0000
0000
0000
0000
0000
0000
,
0001
0000
0000
0000
0000
0000
1010
0000
,
0000
0000
1000
0000
0001
0000
0000
0000
,
1010
0000
0100
0010
0100
0010
1000
0100
,
1000
0001
1000
0000
0011
0000
0001
0000
,
1100
0000
0001
0000
0100
0001
0100
0010
,
0000
0000
1000
0000
0001
0000
0000
0000
,
1010
0000
0010
0001
0001
0010
0100
0010
,
1000
0001
1000
0000
0011
0000
0001
0100
,
1000
0000
0110
0000
1000
0000
0001
0100
,
0000
0000
1000
0000
0001
0000
0000
0000
,
1010
0000
0010
0001
0001
0010
0100
0010
,
1000
0001
1000
0000
0011
0000
0001
0000
,
1100
0000
0001
0000
0100
0001
0100
0010
,
0000
0000
1000
0000
0001
0000
0000
0000
,
1010
0000
0010
0001
0001
0010
0100
0010
,
1000
0001
1000
0000
0011
0000
0001
0100
,
1000
0000
0110
0000
1000
0000
0001
0100
,
0000
0000
0000
0000
1000
0000
0001
0000
,
1000
0000
1000
0001
0010
0000
0001
0000
,
1000
0000
0000
0000
0101
0000
1000
0000
,
0011
0000
0001
0000
0100
0000
0001
0000
,
0000
0000
0000
0000
1000
0000
0001
0000
,
1000
0000
1000
0001
0010
0000
0001
0000
,
1000
0000
0010
0000
0100
0000
0010
0000
,
0001
0000
1000
0001
1000
0000
0100
0000
,
0000
0000
0000
0000
1000
0000
0001
0000
,
1000
0000
1000
0001
0010
0000
0001
0000
,
1000
0000
0000
0000
0101
0000
1000
0000
,
0001
0000
1000
0001
1000
0000
0100
0000
,
0000
0000
0000
0000
1000
0000
0001
0000
,
1000
0000
1000
0001
0010
0000
0001
0000
,
1000
0000
0010
0000
0100
0000
0010
0000
,
0101
0000
0100
0100
0100
0000
0001
0000
,
0000
0000
1000
0000
0001
0000
0000
0000
,
0110
0000
0100
0010
0001
1000
0100
0000
,
1000
0000
0100
0000
1010
0000
0010
0000
,
0110
0000
0010
1000
0001
1000
0001
0000
,
0000
0000
1000
0000
0001
0000
0000
0000
,
1010
0000
0010
0001
0001
0010
0100
0010
,
0001
0000
0010
0000
0110
0000
1000
0000
,
1010
0000
1000
0001
0100
0000
1001
0000
,
0000
0000
1000
0000
0001
0000
0000
0000
,
1010
0000
0010
0001
0001
0010
0100
0010
,
0001
0000
0010
0000
0110
0000
1000
0000
,
0110
0000
0010
1000
0001
1000
0001
0000
,
0000
0000
1000
0000
0001
0000
0000
0000
,
1010
0000
0010
0001
0001
0010
0100
0010
,
0001
0000
0010
0000
0110
0000
1000
0000
,
1001
0000
0001
0100
0010
0000
1000
0010
,
0001
0000
0100
0000
0000
0000
0000
0000
,
1000
0000
0000
0000
0010
1000
0100
1000
,
1000
0001
1000
0000
0011
0000
0001
0000
,
1100
0000
0001
0000
0100
0001
0100
0010
,
0000
0000
1000
0000
0001
0000
0000
0000
,
1010
0000
0010
0001
0001
0010
0100
0010
,
1000
0001
1000
0000
0011
0000
0001
0100
,
1000
0000
0110
0000
1000
0000
0001
0100
,
0000
0000
1000
0000
0001
0000
0000
0000
,
1010
0000
0010
0001
0001
0010
0100
0010
,
1000
0001
0100
0000
1001
0000
0010
0000
,
0001
0000
0010
0000
0000
0000
1001
0000
,
0000
0000
1000
0000
0001
0000
0000
0000
,
1010
0000
0010
0001
0001
0010
0100
0010
,
1000
0001
1000
0000
0011
0000
0001
0100
,
1000
0000
0110
0000
1000
0000
0001
0100
,
0001
0000
0010
0000
0100
0000
0000
0000
,
1000
0000
0010
0000
0100
0000
0010
0000
,
1000
0000
0010
0000
0100
0000
1001
0000
,
1000
0000
0010
0000
1010
0000
1000
0000
,
0000
0000
1000
0000
0001
0000
0000
0000
,
1000
0000
1000
0001
0010
0000
0001
0000
,
1000
0000
0010
0000
0100
0000
0010
0000
,
0001
0000
1000
1000
0010
0100
0001
0000
,
0000
0000
1000
0000
0001
0000
0000
0000
,
0001
0000
0010
0001
1000
0000
0001
0000
,
0000
0000
0001
0000
1000
0010
0100
0000
,
0001
0000
1000
0001
1000
0000
0100
0000
,
0000
0000
1000
0000
0001
0000
0010
0000
,
1000
0000
1000
0001
0010
0000
0001
0000
,
0000
0000
1000
0000
0001
0000
0010
0000
,
0001
0000
0010
0100
0010
0100
1000
0000
,
0000
0000
1000
0000
0001
0000
0000
0000
,
0110
0000
0010
1000
0001
1000
0001
0000
,
0001
0000
0010
0000
0110
0000
1000
0000
,
0110
0000
0010
1000
0001
1000
0001
0000
,
0000
0000
1000
0000
0001
0000
0000
0000
,
1010
0000
0010
0001
0001
0010
0100
0010
,
0001
0000
0010
0000
0110
0000
1000
0000
,
0101
0000
0100
0100
0100
0000
0001
0000
,
0000
0000
1000
0000
0001
0000
0000
0000
,
0110
0000
0100
0010
0001
1000
0100
0000
,
0000
0000
0000
0000
1000
0000
0001
0000
,
0001
0000
0010
0100
0010
0100
1000
0000
,
0000
0000
1000
0000
0001
0000
0000
0000
,
1010
0000
0010
0001
0001
0010
0100
0010
,
0000
0000
0001
0000
0110
0000
0100
0000
,
0101
0000
0100
0100
0100
0000
0001
0000
,
0002
0000
0000
0000
0000
0000
0003
0010
,
1000
0000
0001
0100
0100
0001
0100
0010
,
1000
0001
1000
0000
0011
0000
0001
0000
,
1100
0000
0001
0000
0100
0001
0100
0010
,
0000
0000
1000
0000
0001
0000
0000
0000
,
1010
0000
0100
0010
0100
0010
1000
0100
,
1000
0001
1000
0000
0011
0000
0001
0100
,
1000
0000
0110
0000
1000
0000
0001
0100
,
0000
0000
1000
0000
0001
0000
0000
0000
,
1010
0000
0010
0001
0001
0010
0100
0010
,
1000
0001
0100
0000
1001
0000
0010
0000
,
0001
0000
0010
0000
0000
0000
1001
0000
,
0000
0000
1000
0000
0001
0000
0000
0000
,
1010
0000
0010
0001
0001
0010
0100
0010
,
1000
0001
1000
0000
0011
0000
0001
0100
,
1000
0000
0110
0000
1000
0000
0001
0100
,
1000
0000
0000
0000
0000
0000
0000
0000
,
2000
0000
0000
0000
0000
0000
0000
0000
,
3000
0000
0000
0000
0000
0000
0000
0000
,
1000
0000
0000
0000
0000
0000
0000
0000
,
1000
0000
0000
0000
0020
0000
0000
0000
,
0000
0000
0000
0000
0000
0000
0000
0000
,
0000
0000
0030
0000
1000
0000
0001
0000
,
1000
0000
0000
0000
0000
0000
2000
0000
,
0000
0000
0000
0000
0000
0000
0000
0000
,
0000
0000
0000
0000
0000
0000
0000
0000
,
0000
0000
0000
0000
0000
0000
0000
0000
,
0000
0000
0000
0000
0000
0000
0000
0000
,
0000
0000
2000
0000
0000
0000
0000
0000
,
0000
0000
0000
0000
3020
0000
0001
0000
,
0000
0000
0000
0000
0000
0000
0000
0000
,
0000
0000
0000
0000
0030
0000
0003
0010
,
0001
0010
0000
0000
1010
0000
0001
0100
,
0001
0010
0000
0000
1010
0000
0001
0100
,
0001
0100
0000
0000
1100
0000
0001
0010
,
0001
0000
0000
1000
0100
1000
1000
0010
,
1000
0000
0000
0000
0010
1000
0100
1000
,
0001
0010
0000
0000
1010
0000
0001
0100
,
1000
0100
0000
0000
0101
0000
1000
0010
,
1000
0100
0000
1000
0000
0000
0110
0000
,
0001
0010
0000
0000
1010
0000
0001
0100
,
1000
0100
0000
0000
0101
0000
1000
0010
,
1000
0100
0000
0000
0101
0000
1000
0010
,
0001
0000
0000
1000
0100
1000
1000
0010
,
0001
0010
0000
0000
1010
0000
0001
0100
,
0001
0010
0000
0000
1010
0000
0001
0100
,
0001
0100
0000
0000
1100
0000
0001
0010
,
0001
0000
0000
1000
0100
1000
1000
0010
,
0001
0010
0000
0000
1010
0000
0001
0100
,
0001
0010
0000
0000
1010
0000
0001
0100
,
0001
0010
0000
0000
1010
0000
0001
0100
,
0001
0000
0000
1000
0100
1000
1000
0010
,
0001
0010
0000
0000
1010
0000
0001
0100
,
1000
0010
0000
0000
0011
0000
1000
0100
,
0001
0100
0000
0000
1100
0000
0001
0010
,
0001
0000
0000
1000
0100
1000
1000
0010
,
0001
0000
0100
0000
0010
0000
0000
0000
,
;

//---------------dance-single - Heavy----------------
#NOTEDATA:;
#CHARTNAME:Heavy;
#STEPSTYPE:dance-single;
#DESCRIPTION:Heavy;
#CHARTSTYLE:;
#DIFFICULTY:Hard;
#METER:7;
#RADARVALUES:0.458600,0.470538,0.434383,0.014126,0.000000,909.000000,786.000000,123.000000,4.000000,0.000000,0.000000,0.000000,0.000000,0.000000,0.458600,0.470538,0.434383,0.014126,0.000000,909.000000,786.000000,123.000000,4.000000,0.000000,0.000000,0.000000,0.000000,0.000000;
#CREDIT:Heavy;
#NOTES:
0000
0000
0000
0000
0000
0000
0000
0000
,
0001
0000
0000
0000
1000
0000
0000
0000
,
1000
0000
0000
0000
0001
0000
0000
0000
,
1000
0000
1000
0000
1000
0000
0011
0000
,
1000
0001
1000
0000
0001
0000
1000
0000
,
0011
0000
0100
0001
1000
0100
1000
0001
,
1000
0100
1000
0000
0011
0000
0010
0000
,
0110
0000
0100
0000
0001
0000
0100
1000
,
1000
0001
1000
0000
0001
0000
1000
0000
,
0110
0000
1000
0100
0100
0001
0100
1000
,
1000
0100
1000
0000
0011
0000
0010
0100
,
1000
0000
1100
0000
0100
0000
0010
0100
,
1000
0001
1000
0000
0001
0000
1000
0000
,
0110
0000
1000
0100
0100
0001
0100
1000
,
1000
0100
1000
0000
0011
0000
0010
0000
,
0110
0000
0100
0000
0001
0000
0100
1000
,
1000
0001
1000
0000
0001
0000
1000
0000
,
0110
0000
1000
0100
0100
0001
0100
1000
,
1000
0100
1000
0000
0011
0000
0010
0100
,
1000
0000
1100
0000
0100
0000
0010
0100
,
0000
0000
0000
0000
1000
1000
0100
0000
,
0011
0000
0001
0100
0010
0100
0001
0100
,
0001
0100
0010
0000
0110
0000
0001
0000
,
0110
0000
0010
1000
0100
0010
0001
0100
,
0000
0000
0000
0000
1000
1000
0100
0000
,
0011
0000
0001
0100
0010
0100
0001
0100
,
0001
0010
0001
0000
0101
0000
0010
0000
,
0110
0000
0100
0010
1000
0100
1000
0000
,
0000
0000
0000
0000
1000
1000
0100
0000
,
0011
0000
0001
0100
0010
0100
0001
0100
,
0001
0100
0010
0000
0110
0000
0001
0000
,
0110
0000
0100
0010
1000
0100
1000
0000
,
0000
0000
0000
0000
1000
1000
0100
0000
,
0011
0000
0001
0100
0010
0100
0001
0100
,
0001
0010
0001
0000
0101
0000
0010
0000
,
0011
0000
0100
0100
0100
0000
0010
0000
,
1000
0001
1000
0000
0001
0000
1000
0000
,
0101
0000
1000
0001
0100
0010
0100
0001
,
1000
0010
0100
0000
0011
0000
0001
0000
,
1010
0000
0010
0001
1000
0001
0100
0000
,
1000
0001
1000
0000
0001
0000
1000
0000
,
0110
0000
1000
0100
0100
0001
0100
1000
,
1000
1000
0001
0000
0011
0000
0010
0000
,
1010
0000
0001
1000
0000
0000
0110
0000
,
1000
0001
1000
0000
0001
0000
1000
0000
,
0110
0000
1000
0100
0100
0001
0100
1000
,
1000
1000
0001
0000
0011
0000
0010
0000
,
1010
0000
0010
0001
1000
0001
0100
0000
,
1000
0001
1000
0000
0001
0000
1000
0000
,
0110
0000
1000
0100
0100
0001
0100
1000
,
1000
1000
0001
0000
0011
0000
0010
0000
,
1010
0000
1000
0100
1000
0000
0001
0000
,
1000
0000
0100
0000
0010
0000
0100
0000
,
0001
0010
0010
0000
1010
0000
0100
1000
,
1000
0100
1000
0000
0011
0000
0010
0000
,
0110
0000
0100
0000
0001
0000
0100
1000
,
1000
0001
1000
0000
0001
0000
1000
0000
,
0110
0000
1000
0100
0100
0001
0100
1000
,
1000
0100
1000
0000
0011
0000
0010
0100
,
1000
0000
1100
0000
0100
0000
0010
0100
,
1000
0001
1000
0000
0001
0000
1000
0000
,
0110
0000
1000
0100
0100
0001
0100
1000
,
1000
0001
1000
0000
1010
0000
0010
0000
,
1100
0000
1000
0000
0001
0000
0011
0000
,
1000
0001
1000
0000
0001
0000
1000
0000
,
0110
0000
1000
0100
0100
0001
0100
1000
,
1000
0100
1000
0000
0011
0000
0010
0100
,
1000
0000
1100
0000
0100
0000
0010
0100
,
1000
0010
0100
0010
0100
0100
0001
0000
,
0001
0010
0001
0000
0101
0000
0010
1000
,
0001
1000
0100
0000
0010
0000
0110
0000
,
0011
0000
1000
0000
1001
0000
0001
0000
,
1000
0001
1000
0000
0001
0000
1000
0000
,
0011
0000
0001
0100
0010
0100
0001
0100
,
0001
0010
0001
0000
0101
0000
0010
1000
,
0001
0000
1000
1000
0001
0100
0010
0000
,
1000
0001
1000
0000
0001
0000
1000
0000
,
1000
0100
1000
0100
0010
0001
1000
0100
,
0001
0010
0100
0010
0100
1000
0010
0000
,
0110
0000
0100
0010
1000
0100
1000
0000
,
0000
1000
0001
0010
0100
0010
0001
0000
,
0011
0000
0001
0100
0010
0100
0001
0100
,
0000
1000
0001
0010
0100
0010
0001
0010
,
0001
0000
0100
0001
1000
0010
0001
0100
,
1000
0001
1000
0000
0001
0000
1000
0000
,
1010
0000
0010
0001
1000
0001
0100
0000
,
1000
1000
0001
0000
0011
0000
0010
0000
,
1010
0000
0010
0001
1000
0001
0100
0000
,
1000
0001
1000
0000
0001
0000
1000
0000
,
0110
0000
1000
0100
0100
0001
0100
1000
,
1000
1000
0001
0000
0011
0000
0010
0000
,
0011
0000
0100
0100
0100
0000
0010
0000
,
1000
0001
1000
0000
0001
0000
1000
0000
,
0101
0000
1000
0001
0100
0010
0100
0001
,
0000
0000
0000
0000
1000
1000
0100
0010
,
0001
0000
0100
0001
1000
0010
0001
0100
,
1000
0001
1000
0000
0001
0000
1000
0000
,
0110
0000
1000
0100
0100
0001
0100
1000
,
0001
0100
0001
0000
1001
0000
1000
0000
,
0011
0000
0100
0100
0100
0000
0010
0000
,
2000
0000
0010
0000
0100
0000
3000
0000
,
0110
0000
0100
1000
1000
0100
0010
0001
,
1000
0100
1000
0000
0011
0000
0010
0000
,
0110
0000
0100
0000
0001
0000
0100
1000
,
1000
0001
1000
0000
0001
0000
1000
0000
,
0011
0000
0100
0001
1000
0100
1000
0001
,
1000
0100
1000
0000
0011
0000
0010
0100
,
1000
0000
1100
0000
0100
0000
0010
0100
,
1000
0001
1000
0000
0001
0000
1000
0000
,
0110
0000
1000
0100
0100
0001
0100
1000
,
1000
0001
1000
0000
1010
0000
0010
0000
,
1100
0000
1000
0000
0001
0000
0011
0000
,
1000
0001
1000
0000
0001
0000
1000
0000
,
0110
0000
1000
0100
0100
0001
0100
1000
,
1000
0100
1000
0000
0011
0000
0010
0100
,
1000
0000
1100
0000
0100
0000
0010
0100
,
0001
0000
0000
0000
1000
0000
0000
0000
,
0002
0000
0000
0000
1000
0000
0000
0000
,
1003
0000
0000
0000
0001
0000
0000
0000
,
1000
0000
0000
0000
0001
0000
0000
0000
,
0001
0000
0000
0000
0020
0000
0000
0000
,
0001
0000
0000
0000
1000
0000
0000
0000
,
0000
0000
0030
0000
1000
1000
0100
0010
,
0001
0000
0000
0000
1000
0000
2000
0000
,
1000
0000
0000
0000
0001
0000
0000
0000
,
0001
0000
0000
0000
1000
0000
0000
0000
,
1000
0000
0000
0000
0001
0000
0000
0000
,
1000
0000
0000
0000
0001
0000
0000
0000
,
1000
0000
3002
0000
0001
0000
0000
0000
,
0000
0000
0000
0000
2003
0000
0100
0000
,
0001
0000
0000
0000
1000
0000
0000
0000
,
2000
0000
0010
0000
3100
0000
3000
0000
,
1001
0000
0100
0000
0110
0000
0010
0000
,
1001
0000
0010
0000
0110
0000
0100
0000
,
1001
0000
0010
0000
0110
0000
0100
0000
,
0110
0000
0010
1000
0100
0010
0010
0100
,
0001
0010
0010
0000
1010
0000
0100
0000
,
1001
0000
0100
0000
0110
0000
0010
0000
,
1001
0000
0010
0000
0110
0000
0100
1000
,
0001
1000
0001
1000
0010
0000
1010
0000
,
1001
0000
0100
0000
0110
0000
0010
0000
,
1001
0000
0100
0000
0110
0000
0010
0000
,
1001
0000
0010
0000
0110
0000
0100
0000
,
0110
0000
0010
1000
0100
0010
0010
0000
,
1001
0000
0100
0000
0110
0000
0010
0000
,
1001
0000
0010
0000
0110
0000
0100
0000
,
1001
0000
0010
0000
0110
0000
0100
0000
,
0110
0000
0010
1000
0100
0010
0010
0000
,
1001
0000
0100
0000
0110
0000
0010
0000
,
1001
0000
0010
0000
0110
0000
0100
0000
,
1001
0000
0100
0000
0110
0000
0010
0000
,
0110
0000
0010
1000
0100
0010
0010
0000
,
1001
0000
0100
0000
0110
0000
0010
0000
,
1001
0000
0100
0000
0110
0000
0010
0000
,
1001
0000
0100
0000
0110
0000
0010
0000
,
0110
0000
0010
1000
0100
0010
0010
0100
,
1000
0010
1000
0001
0100
0010
1000
0000
,
;
