#TITLE:onlymp3.to - Lah Pat Rodeo feat. Flo Milli Remix Official Video -qffM7LWjNw0-192k-1697472209;
#SUBTITLE:;
#ARTIST:Dancing Monkeys Project;
#TITLETRANSLIT:;
#SUBTITLETRANSLIT:;
#ARTISTTRANSLIT:;
#GENRE:;
#CREDIT:Gorilla v1.1.3 (Dancing Monkeys v1.06);
#BANNER:;
#BACKGROUND:;
#LYRICSPATH:;
#CDTITLE:;
#MUSIC:onlymp3.to - Lah Pat Rodeo feat. Flo Milli Remix Official Video -qffM7LWjNw0-192k-1697472209.mp3;
#OFFSET:-0.568458;
#SAMPLESTART:54.568459;
#SAMPLELENGTH:12.000000;
#SELECTABLE:YES;
#BPMS:0.000000=120.000000
;
#STOPS:
;
#BGCHANGES:;
#KEYSOUNDS:;
#ATTACKS:;

//---------------dance-single - Basic----------------
#NOTES:
     dance-single:
     Basic:
     Easy:
     5:
     0.228171,0.212604,0.000000,0.000000,0.000000,393.000000,393.000000,0.000000,0.000000,0.000000,0.000000,0.228171,0.212604,0.000000,0.000000,0.000000,393.000000,393.000000,0.000000,0.000000,0.000000,0.000000:
// measure 0
0000
1000
0000
0000
,  // measure 1
0000
0001
0000
0000
,  // measure 2
0000
1000
0000
0000
,  // measure 3
0000
1000
0000
0000
,  // measure 4
0000
0001
0000
0100
,  // measure 5
0000
0100
0000
0001
,  // measure 6
0000
0000
0001
0000
0000
0000
0000
0001
,  // measure 7
0000
0000
0100
0001
,  // measure 8
1000
0001
0000
0100
,  // measure 9
0001
0100
0010
0001
,  // measure 10
1000
0001
0000
0100
,  // measure 11
0001
1000
0100
1000
,  // measure 12
1000
0001
0000
0100
,  // measure 13
0001
0100
0010
0001
,  // measure 14
1000
0001
0000
0100
,  // measure 15
0001
0010
1000
1000
,  // measure 16
1000
0001
0000
0100
,  // measure 17
0001
0100
0010
0001
,  // measure 18
1000
0001
0000
0100
,  // measure 19
0001
0001
1000
1000
,  // measure 20
0100
0001
0000
0100
,  // measure 21
1000
0010
0001
0010
,  // measure 22
1000
0000
0010
1000
,  // measure 23
1000
0010
0100
0001
,  // measure 24
1000
0001
0000
0100
,  // measure 25
0001
1000
0000
0100
,  // measure 26
1000
0001
0000
0010
,  // measure 27
0000
0001
0001
0001
,  // measure 28
1000
0001
0000
0100
,  // measure 29
0001
0100
0010
0001
,  // measure 30
1000
0001
0000
0100
,  // measure 31
0001
0010
0100
0001
,  // measure 32
1000
0001
0000
0100
,  // measure 33
0001
0100
0010
0001
,  // measure 34
1000
0001
0000
0100
,  // measure 35
0000
0001
0001
0001
,  // measure 36
1000
0001
0000
0100
,  // measure 37
0001
0100
0010
0001
,  // measure 38
1000
1000
0010
0001
,  // measure 39
0001
0010
0100
0001
,  // measure 40
1000
0001
0000
0100
,  // measure 41
0001
0100
0010
0001
,  // measure 42
1000
0010
0010
1000
,  // measure 43
0001
0010
0100
0001
,  // measure 44
1000
0001
0000
0100
,  // measure 45
0001
0100
0010
0001
,  // measure 46
1000
0001
0010
0001
,  // measure 47
0001
0010
0100
0001
,  // measure 48
1000
0001
0000
0100
,  // measure 49
0001
0100
0010
0001
,  // measure 50
1000
0001
0000
0100
,  // measure 51
0001
1000
0100
1000
,  // measure 52
1000
0001
0000
0100
,  // measure 53
0001
0010
0010
1000
,  // measure 54
0100
0001
0000
0100
,  // measure 55
0001
0010
1000
0001
,  // measure 56
1000
0001
0000
0100
,  // measure 57
0001
0100
0010
0001
,  // measure 58
1000
0001
0000
0100
,  // measure 59
0001
1000
1000
0001
,  // measure 60
1000
0001
0000
0100
,  // measure 61
1000
0010
0001
0010
,  // measure 62
0000
1000
0010
1000
,  // measure 63
0001
0010
0010
0010
,  // measure 64
1000
0001
0000
0100
,  // measure 65
1000
0001
0000
0010
,  // measure 66
1000
0001
0000
0100
,  // measure 67
0000
0001
0001
0001
,  // measure 68
1000
0001
0000
0100
,  // measure 69
0001
0100
0010
0001
,  // measure 70
1000
0001
0000
0100
,  // measure 71
0001
0010
0100
0001
,  // measure 72
1000
0001
0000
0100
,  // measure 73
0001
0100
0010
0001
,  // measure 74
1000
0001
0000
0100
,  // measure 75
0000
0001
0001
0001
,  // measure 76
1000
0001
0000
0100
,  // measure 77
0001
0100
0010
0001
,  // measure 78
1000
0001
0010
1000
,  // measure 79
1000
0010
0100
0001
,  // measure 80
1000
0001
0000
0100
,  // measure 81
0001
0100
0010
0001
,  // measure 82
1000
0010
0010
1000
,  // measure 83
0001
0010
0100
0001
,  // measure 84
1000
0001
0000
0100
,  // measure 85
0001
0100
0010
0001
,  // measure 86
1000
0001
0010
0001
,  // measure 87
0001
0010
0100
0001
,  // measure 88
1000
0001
0000
0100
,  // measure 89
0001
0100
0010
0001
,  // measure 90
1000
0001
0000
0100
,  // measure 91
0001
1000
0100
0001
,  // measure 92
1000
0001
0100
0100
,  // measure 93
0001
0100
0010
0001
,  // measure 94
1000
0001
0000
0100
,  // measure 95
0001
0010
1000
0001
,  // measure 96
1000
0001
0000
0100
,  // measure 97
0001
0100
0010
0001
,  // measure 98
1000
0001
0000
0100
,  // measure 99
1000
0100
1000
1000
,  // measure 100
1000
0001
0000
0100
,  // measure 101
0001
0100
0010
0001
,  // measure 102
1000
0001
0000
0100
,  // measure 103
0001
0010
0100
0001
,  // measure 104
1000
0001
0000
0100
,  // measure 105
0001
0100
0010
0001
,  // measure 106
1000
0001
0000
0100
,  // measure 107
0000
0001
0001
0001
,  // measure 108
1000
0001
0000
0100
,  // measure 109
0001
0100
0010
0001
,  // measure 110
0001
0001
0010
0001
,  // measure 111
0001
0010
0100
0001
,  // measure 112
1000
0001
0000
0100
,  // measure 113
0001
0100
0010
0001
,  // measure 114
1000
0010
0010
1000
,  // measure 115
1000
1000
0010
1000
,  // measure 116
0000
1000
0000
0000
;

//---------------dance-single - Standard----------------
#NOTES:
     dance-single:
     Standard:
     Medium:
     6:
     0.366932,0.401585,0.000000,0.000000,0.000000,632.000000,632.000000,0.000000,0.000000,0.000000,0.000000,0.366932,0.401585,0.000000,0.000000,0.000000,632.000000,632.000000,0.000000,0.000000,0.000000,0.000000:
0000
0000
0001
0000
0000
0000
0000
0000
,
0000
0000
1000
0000
0000
0000
0000
0000
,
0000
0000
1000
0000
0000
0000
0000
0000
,
0001
0100
0010
0100
0010
1000
0010
0100
,
0001
0000
1000
0000
0000
0000
0010
0000
,
1000
0001
0100
0010
0100
0100
0010
1000
,
1000
0010
0100
0001
0010
0001
0100
0010
,
0001
0000
1000
0100
1000
0100
1000
0001
,
0001
0000
1000
0000
0000
0000
0010
0000
,
1000
0001
0100
0010
0100
0100
0010
1000
,
0001
0000
1000
0000
0000
0000
0010
0000
,
1000
1000
0001
0100
0001
0010
0100
1000
,
0001
0000
1000
0000
0000
0000
0010
0000
,
1000
0001
0100
0010
0100
0100
0010
1000
,
0001
0000
1000
0000
0000
0000
0010
0000
,
0001
1000
1000
0100
1000
0001
1000
0010
,
0001
0000
1000
0000
0000
0000
0010
0000
,
1000
0001
0100
0010
0100
0100
0010
1000
,
0001
0000
1000
0000
0000
0000
0010
0000
,
0001
0100
0001
0100
0010
0100
0100
0100
,
0001
0000
1000
0000
0000
0000
0010
0000
,
0001
0100
0010
0000
1000
0000
0001
0100
,
0001
0000
0000
0100
0001
0000
0100
0000
,
0001
0000
0100
0000
0001
0001
0100
0010
,
0001
0000
1000
0000
0000
0000
0010
0000
,
0001
0000
1000
0000
0000
0000
0100
0000
,
0001
0000
1000
0000
0000
0000
0100
0000
,
1000
0000
1000
0000
1000
0001
0100
0010
,
0001
0000
1000
0000
0000
0000
0010
0000
,
1000
0001
0100
0010
0100
0100
0010
1000
,
0001
0000
1000
0000
0000
0000
0010
0000
,
0001
0000
1000
0100
1000
0100
1000
0001
,
0001
0000
1000
0000
0000
0000
0010
0000
,
1000
0001
0100
0010
0100
0100
0010
1000
,
0001
0000
1000
0000
0000
0000
0010
0000
,
1000
0000
1000
0000
1000
0001
0100
0010
,
0001
0000
1000
0000
0000
0000
0010
0000
,
1000
0001
0100
0010
0100
0100
0010
1000
,
1000
0010
0100
0001
0010
0001
0100
0010
,
0001
0000
1000
0100
1000
0100
1000
0001
,
0001
0000
1000
0000
0000
0000
0010
0000
,
1000
0001
0100
0010
0100
0100
0010
1000
,
0001
1000
0001
0000
0001
0000
1000
0100
,
0001
0000
1000
0100
1000
0100
1000
0001
,
0001
0000
1000
0000
0000
0000
0010
0000
,
1000
0001
0100
0010
0100
0100
0010
1000
,
1000
0010
0100
0001
0010
0001
0100
0010
,
0001
0000
1000
0100
1000
0100
1000
0001
,
0001
0000
1000
0000
0000
0000
0010
0000
,
1000
0001
0100
0010
0100
0100
0010
1000
,
0001
0000
1000
0000
0000
0000
0010
0000
,
1000
1000
0001
0100
0001
0010
0100
1000
,
0001
0000
1000
0000
0000
0000
0010
0000
,
1000
0001
0100
0010
0100
0100
0010
1000
,
0001
0000
1000
0000
0000
0000
0010
0000
,
0001
1000
1000
0100
1000
0001
1000
0010
,
0001
0000
1000
0000
0000
0000
0010
0000
,
1000
0001
0100
0010
0100
0100
0010
1000
,
0001
0000
1000
0000
0000
0000
0010
0000
,
0001
0100
0001
0100
0010
0100
0100
0100
,
0001
0000
1000
0000
0000
0000
0010
0000
,
0001
0100
0010
0000
1000
0000
0001
0100
,
0001
0000
0000
0100
0001
0000
0100
0000
,
1000
0001
0010
0001
0100
0001
0100
0100
,
0001
0000
1000
0000
0000
0000
0010
0000
,
1000
0000
0001
0000
0000
0000
0010
0000
,
0001
0000
1000
0000
0000
0000
0010
0000
,
1000
0000
1000
0000
1000
0001
0100
0010
,
0001
0000
1000
0000
0000
0000
0010
0000
,
1000
0001
0100
0010
0100
0100
0010
1000
,
0001
0000
1000
0000
0000
0000
0010
0000
,
0001
0000
1000
0100
1000
0100
1000
0001
,
0001
0000
1000
0000
0000
0000
0010
0000
,
1000
0001
0100
0010
0100
0100
0010
1000
,
0001
0000
1000
0000
0000
0000
0010
0000
,
1000
0000
1000
0000
1000
0001
0100
0010
,
0001
0000
1000
0000
0000
0000
0010
0000
,
1000
0001
0100
0010
0100
0100
0010
1000
,
1000
0010
0100
0001
0010
0001
0100
0010
,
0001
0000
1000
0100
1000
0100
1000
0001
,
0001
0000
1000
0000
0000
0000
0010
0000
,
1000
0001
0100
0010
0100
0100
0010
1000
,
0001
1000
0001
0000
0001
0000
1000
0100
,
0001
0000
1000
0100
1000
0100
1000
0001
,
0001
0000
1000
0000
0000
0000
0010
0000
,
1000
0001
0100
0010
0100
0100
0010
1000
,
1000
0010
0100
0001
0010
0001
0100
0010
,
0001
0000
1000
0100
1000
0100
1000
0001
,
0001
0000
1000
0000
0000
0000
0010
0000
,
1000
0001
0100
0010
0100
0100
0010
1000
,
0001
0000
1000
0000
0000
0000
0010
0000
,
1000
1000
0001
0100
0001
0010
0100
1000
,
0001
0000
1000
0000
0000
0000
0010
0000
,
1000
0001
0100
0010
0100
0100
0010
1000
,
0001
0000
1000
0000
0000
0000
0010
0000
,
0001
1000
1000
0100
1000
0001
1000
0010
,
0001
0000
1000
0000
0000
0000
0010
0000
,
1000
0001
0100
0010
0100
0100
0010
1000
,
0001
0000
1000
0000
0000
0000
0010
0000
,
1000
0001
0010
0100
1000
0100
0010
0100
,
0001
0000
1000
0000
0000
0000
0010
0000
,
1000
0001
0100
0010
0100
0100
0010
1000
,
0001
0000
1000
0000
0000
0000
0010
0000
,
0001
0000
1000
0100
1000
0100
1000
0001
,
0001
0000
1000
0000
0000
0000
0010
0000
,
1000
0001
0100
0010
0100
0100
0010
1000
,
0001
0000
1000
0000
0000
0000
0010
0000
,
1000
0000
1000
0000
1000
0001
0100
0010
,
0001
0000
1000
0000
0000
0000
0010
0000
,
1000
0001
0100
0010
0100
0100
0010
1000
,
1000
0010
0100
0001
0010
0001
0100
0010
,
0001
0000
1000
0100
1000
0100
1000
0001
,
0001
0000
1000
0000
0000
0000
0010
0000
,
1000
0001
0100
0010
0100
0100
0010
1000
,
0001
1000
0001
0000
0001
0000
1000
0100
,
0001
1000
0100
0010
0001
0100
0010
1000
,
0000
0000
0001
0000
0000
0000
0000
0000
,
;

//---------------dance-single - Heavy----------------
#NOTES:
     dance-single:
     Heavy:
     Hard:
     7:
     0.462148,0.403744,0.105667,0.000000,0.000000,796.000000,770.000000,26.000000,0.000000,0.000000,0.000000,0.462148,0.403744,0.105667,0.000000,0.000000,796.000000,770.000000,26.000000,0.000000,0.000000,0.000000:
0000
0000
1000
0000
0000
0000
0001
0001
,
0000
0000
1000
0000
0000
0000
0001
0001
,
0000
0000
0001
0000
0000
0000
1000
1000
,
0001
0010
0100
1000
0001
0000
0101
0000
,
0001
0010
0001
0000
0001
0001
0100
0000
,
0110
0000
0001
0000
0100
0100
0001
0010
,
1000
0100
0000
1000
0010
0100
0010
0100
,
1000
0001
1000
0010
0100
0010
0100
0010
,
0001
0010
0001
0000
0001
0001
0100
0000
,
0110
0000
0001
0000
0100
0100
0001
0010
,
0001
0010
0001
0000
0001
0001
0100
0100
,
0000
1000
0010
1000
0010
1000
0010
1000
,
0001
0010
0001
0000
0001
0001
0100
0000
,
0110
0000
0001
0000
0100
0100
0001
0010
,
0001
0010
0001
0000
0001
0001
0100
0100
,
1000
0001
0001
1000
0010
0000
1000
0010
,
0001
0010
0001
0000
0001
0001
0100
0000
,
0110
0000
0001
0000
0100
0100
0001
0010
,
0001
0010
0001
0000
0001
0001
0100
0100
,
0001
0100
0000
1000
0100
0010
0010
0010
,
0001
0010
0001
0000
0001
0001
0100
0100
,
1000
0100
0001
0100
0010
0010
0100
0010
,
1000
0000
1000
0100
0010
0001
0100
0001
,
1000
0000
0010
0000
0100
0100
0010
1000
,
0001
0010
0001
0000
0001
0001
0100
0100
,
0001
0100
0001
0000
0001
0001
0010
0010
,
1000
0100
1000
0000
1000
1000
0010
0010
,
0001
0000
0001
0001
0001
0010
0001
1000
,
0001
0010
0001
0000
0001
0001
0100
0000
,
0110
0000
0001
0000
0100
0100
0001
0010
,
0001
0010
0001
0000
0001
0001
0100
0100
,
1000
0001
1000
0010
0100
0010
0100
0010
,
0001
0010
0001
0000
0001
0001
0100
0000
,
0110
0000
0001
0000
0100
0100
0001
0010
,
0001
0010
0001
0000
0001
0001
0100
0100
,
0001
0000
0001
0001
0001
0010
0001
1000
,
0001
0010
0001
0000
0001
0001
0100
0000
,
0110
0000
0001
0000
0100
0100
0001
0010
,
1000
0100
0000
1000
0010
0100
0010
0100
,
1000
0001
1000
0010
0100
0010
0100
0010
,
0001
0010
0001
0000
0001
0001
0100
0000
,
0110
0000
0001
0000
0100
0100
0001
0010
,
1000
0100
0010
0100
0100
0100
0010
0001
,
1000
0001
1000
0010
0100
0010
0100
0010
,
0001
0010
0001
0000
0001
0001
0100
0000
,
0110
0000
0001
0000
0100
0100
0001
0010
,
1000
0100
0000
1000
0010
0100
0010
0100
,
1000
0001
1000
0010
0100
0010
0100
0010
,
0001
0010
0001
0000
0001
0001
0100
0000
,
0110
0000
0001
0000
0100
0100
0001
0010
,
0001
0010
0001
0000
0001
0001
0100
0100
,
0000
1000
0010
1000
0010
1000
0010
1000
,
0001
0010
0001
0000
0001
0001
0100
0000
,
0110
0000
0001
0000
0100
0100
0001
0010
,
0001
0010
0001
0000
0001
0001
0100
0100
,
1000
0001
0001
1000
0010
0000
1000
0010
,
0001
0010
0001
0000
0001
0001
0100
0000
,
0110
0000
0001
0000
0100
0100
0001
0010
,
0001
0010
0001
0000
0001
0001
0100
0100
,
0001
0100
0000
1000
0100
0010
0010
0010
,
0001
0010
0001
0000
0001
0001
0100
0100
,
1000
0100
0001
0100
0010
0010
0100
0010
,
1000
0000
1000
0100
0010
0001
0100
0001
,
1000
0100
0010
0000
0011
0000
0100
0100
,
0001
0010
0001
0000
0001
0001
0100
0100
,
0001
0100
0001
0000
0001
0001
0010
0010
,
1000
0100
1000
0000
1000
1000
0010
0010
,
0001
0000
0001
0001
0001
0010
0001
1000
,
0001
0010
0001
0000
0001
0001
0100
0000
,
0110
0000
0001
0000
0100
0100
0001
0010
,
0001
0010
0001
0000
0001
0001
0100
0100
,
1000
0001
1000
0010
0100
0010
0100
0010
,
0001
0010
0001
0000
0001
0001
0100
0000
,
0110
0000
0001
0000
0100
0100
0001
0010
,
0001
0010
0001
0000
0001
0001
0100
0100
,
0001
0000
0001
0001
0001
0010
0001
1000
,
0001
0010
0001
0000
0001
0001
0100
0000
,
0110
0000
0001
0000
0100
0100
0001
0010
,
1000
0100
0000
1000
0010
0100
0010
0100
,
1000
0001
1000
0010
0100
0010
0100
0010
,
0001
0010
0001
0000
0001
0001
0100
0000
,
0110
0000
0001
0000
0100
0100
0001
0010
,
1000
0100
0010
0100
0100
0100
0010
0001
,
1000
0001
1000
0010
0100
0010
0100
0010
,
0001
0010
0001
0000
0001
0001
0100
0000
,
0110
0000
0001
0000
0100
0100
0001
0010
,
1000
0100
0000
1000
0010
0100
0010
0100
,
1000
0001
1000
0010
0100
0010
0100
0010
,
0001
0010
0001
0000
0001
0001
0100
0000
,
0110
0000
0001
0000
0100
0100
0001
0010
,
0001
0010
0001
0000
0001
0001
0100
0100
,
0000
1000
0010
1000
0010
1000
0010
1000
,
0001
0010
0001
0000
0001
0001
0100
0000
,
0110
0000
0001
0000
0100
0100
0001
0010
,
0001
0010
0001
0000
0001
0001
0100
0100
,
1000
0001
0001
1000
0010
0000
1000
0010
,
0001
0010
0001
0000
0001
0001
0100
0000
,
0110
0000
0001
0000
0100
0100
0001
0010
,
0001
0010
0001
0000
0001
0001
0100
0100
,
1000
0100
1000
0100
1000
0100
1000
0010
,
0001
0010
0001
0000
0001
0001
0100
0000
,
0110
0000
0001
0000
0100
0100
0001
0010
,
0001
0010
0001
0000
0001
0001
0100
0100
,
1000
0001
1000
0010
0100
0010
0100
0010
,
0001
0010
0001
0000
0001
0001
0100
0000
,
0110
0000
0001
0000
0100
0100
0001
0010
,
0001
0010
0001
0000
0001
0001
0100
0100
,
0001
0000
0001
0001
0001
0010
0001
1000
,
0001
0010
0001
0000
0001
0001
0100
0000
,
0110
0000
0001
0000
0100
0100
0001
0010
,
1000
0100
0000
1000
0010
0100
0010
0100
,
1000
0001
1000
0010
0100
0010
0100
0010
,
0001
0010
0001
0000
0001
0001
0100
0000
,
0110
0000
0001
0000
0100
0100
0001
0010
,
1000
0100
0010
0100
0100
0100
0010
0001
,
1000
0100
0010
0100
0010
0001
0010
0001
,
0000
0000
1000
0000
0000
0000
0001
0001
,
;
