#TITLE:Rival;
#SUBTITLE:vs Gary (Rap);
#ARTIST:Pokemon;
#TITLETRANSLIT:;
#SUBTITLETRANSLIT:;
#ARTISTTRANSLIT:;
#GENRE:;
#CREDIT:Gorilla v1.1.3 (Dancing Monkeys v1.06);
#BANNER:;
#BACKGROUND:;
#LYRICSPATH:;
#CDTITLE:;
#MUSIC:Rival.mp3;
#OFFSET:-1.622583;
#SAMPLESTART:42.174664;
#SAMPLELENGTH:12.000000;
#SELECTABLE:YES;
#BPMS:0.000000=147.957870
;
#STOPS:
;
#BGCHANGES:;
#KEYSOUNDS:;
#ATTACKS:;

//---------------dance-single - Basic----------------
#NOTES:
     dance-single:
     Basic:
     Easy:
     4:
     0.217799,0.203003,0.000000,0.033143,0.000000,92.000000,92.000000,0.000000,2.000000,0.000000,0.000000,0.217799,0.203003,0.000000,0.033143,0.000000,92.000000,92.000000,0.000000,2.000000,0.000000,0.000000:
// measure 0
2000
0000
0000
0000
,  // measure 1
3000
0000
1000
0000
,  // measure 2
0001
0000
0010
0000
,  // measure 3
0001
0001
0001
0000
,  // measure 4
1000
1000
0100
0000
,  // measure 5
0010
0010
0100
0100
,  // measure 6
0000
1000
1000
0000
,  // measure 7
0001
0001
0100
0100
,  // measure 8
0000
1000
1000
0000
,  // measure 9
0010
0010
0100
0000
,  // measure 10
0001
0010
0010
0000
,  // measure 11
1000
0100
0100
0000
,  // measure 12
1000
1000
0100
0000
,  // measure 13
0010
0001
0100
0000
,  // measure 14
1000
1000
0100
0000
,  // measure 15
0010
0001
0001
0000
,  // measure 16
1000
1000
0100
0000
,  // measure 17
0001
0001
0100
0100
,  // measure 18
0000
1000
0100
0000
,  // measure 19
0010
0000
0100
0000
,  // measure 20
0001
0000
0100
0000
,  // measure 21
1000
0000
0100
0000
,  // measure 22
0001
0000
0100
0000
,  // measure 23
0010
0000
0100
0000
,  // measure 24
0001
0000
0100
0000
,  // measure 25
1000
0000
0100
0000
,  // measure 26
0001
0000
0010
0000
,  // measure 27
0010
0010
0100
0000
,  // measure 28
1000
1000
1000
0000
,  // measure 29
0010
0010
0100
0000
,  // measure 30
1000
1000
0100
0000
,  // measure 31
0010
0010
0100
0000
,  // measure 32
1000
1000
0100
0000
,  // measure 33
0010
0001
0001
0000
,  // measure 34
0001
0001
0002
0000
,  // measure 35
0003
0000
0000
0000
;
