#TITLE:Avvy - Ring A Ling Bahamian Music;
#SUBTITLE:;
#ARTIST:Avvy;
#TITLETRANSLIT:;
#SUBTITLETRANSLIT:;
#ARTISTTRANSLIT:;
#GENRE:;
#CREDIT:Gorilla v1.1.3 (Dancing Monkeys v1.06);
#BANNER:bahamas_flag_wallpaper_by_m0osegirlhunter_daxwpqb-fullview.png;
#BACKGROUND:bahamas-gc8987mu90yld6o8.png;
#LYRICSPATH:;
#CDTITLE:;
#MUSIC:Avvy - Ring A Ling Bahamian Music.mp3;
#OFFSET:-0.061905;
#SAMPLESTART:42.610657;
#SAMPLELENGTH:12.000000;
#SELECTABLE:YES;
#BPMS:0.000000=141.014999
;
#STOPS:
;
#BGCHANGES:;
#KEYSOUNDS:;
#ATTACKS:;

//---------------dance-single - Basic----------------
#NOTES:
     dance-single:
     Basic:
     Easy:
     3:
     0.154271,0.169028,0.000000,0.006707,0.000000,161.000000,161.000000,0.000000,1.000000,0.000000,0.000000,0.154271,0.169028,0.000000,0.006707,0.000000,161.000000,161.000000,0.000000,1.000000,0.000000,0.000000:
// measure 0
0000
0000
1000
0000
,  // measure 1
0001
0000
1000
0000
,  // measure 2
0010
0000
0100
0000
,  // measure 3
1000
0000
0010
0000
,  // measure 4
1000
0000
0001
0001
,  // measure 5
0001
0000
1000
1000
,  // measure 6
1000
0000
0010
0010
,  // measure 7
0010
0000
0002
0000
,  // measure 8
0000
0000
0003
0000
,  // measure 9
1000
0000
0010
0000
,  // measure 10
0001
0000
1000
0000
,  // measure 11
0001
0000
0100
0000
,  // measure 12
0001
0000
0010
0000
,  // measure 13
0001
0000
0010
0000
,  // measure 14
0001
0000
1000
0000
,  // measure 15
0001
0000
0100
0000
,  // measure 16
1000
0000
0010
0000
,  // measure 17
0100
0000
0001
0000
,  // measure 18
0010
0000
0100
0000
,  // measure 19
0010
0000
1000
0000
,  // measure 20
0010
0000
0001
0000
,  // measure 21
0010
0000
1000
0000
,  // measure 22
0010
0000
0100
0000
,  // measure 23
0010
0000
1000
0000
,  // measure 24
0010
0000
0100
0000
,  // measure 25
1000
0000
0100
0000
,  // measure 26
1000
0000
0010
0000
,  // measure 27
0100
0000
1000
0000
,  // measure 28
0010
0000
1000
1000
,  // measure 29
1000
0000
0010
0010
,  // measure 30
0010
0000
0100
0100
,  // measure 31
0100
0000
1000
1000
,  // measure 32
1000
0000
0001
0001
,  // measure 33
0001
0000
0010
0010
,  // measure 34
0010
0000
0100
0100
,  // measure 35
0100
0000
1000
1000
,  // measure 36
1000
0000
0001
0000
,  // measure 37
0010
0000
0100
0000
,  // measure 38
1000
0000
0100
0000
,  // measure 39
0010
0000
0100
0000
,  // measure 40
1000
0000
0001
0000
,  // measure 41
0010
0000
0100
0000
,  // measure 42
0010
0000
1000
0000
,  // measure 43
0010
0000
0100
0000
,  // measure 44
1000
0000
0001
0000
,  // measure 45
0010
0000
0100
0000
,  // measure 46
0010
0000
1000
0000
,  // measure 47
0010
0000
1000
0000
,  // measure 48
0001
0000
0010
0000
,  // measure 49
0100
0000
1000
0000
,  // measure 50
0010
0000
0010
0000
,  // measure 51
0100
0000
1000
0000
,  // measure 52
0010
0000
0001
0000
,  // measure 53
0010
0000
0001
0000
,  // measure 54
0100
0000
1000
0000
,  // measure 55
0010
0000
0100
0000
,  // measure 56
1000
0000
0010
0010
,  // measure 57
0010
0000
1000
1000
,  // measure 58
1000
0000
0010
0010
,  // measure 59
0010
0000
0100
0100
,  // measure 60
0100
0000
0010
0010
,  // measure 61
0010
0000
1000
1000
,  // measure 62
1000
0000
0100
0100
,  // measure 63
0100
0000
0010
0010
,  // measure 64
0010
0000
0001
0000
,  // measure 65
1000
0000
0010
0000
,  // measure 66
1000
0000
0010
0000
,  // measure 67
0100
0000
0010
0000
,  // measure 68
0001
0000
1000
0000
,  // measure 69
0010
0000
0100
0000
,  // measure 70
0010
0000
1000
0000
,  // measure 71
0001
0000
0100
0000
,  // measure 72
0100
0000
0000
0000
;
