#VERSION:0.83;
#TITLE:Rich Baby Daddy;
#SUBTITLE:short;
#ARTIST:Drake and Sexy Reddd;
#TITLETRANSLIT:;
#SUBTITLETRANSLIT:;
#ARTISTTRANSLIT:;
#GENRE:;
#ORIGIN:;
#CREDIT:Gorilla v1.1.3 (Dancing Monkeys v1.06);
#BANNER:IMG_4586 - Copy.png;
#BACKGROUND:IMG_4586.png;
#PREVIEWVID:;
#JACKET:;
#CDIMAGE:;
#DISCIMAGE:;
#LYRICSPATH:;
#CDTITLE:;
#MUSIC:Rich Baby Daddy.mp3;
#OFFSET:-1.097292;
#SAMPLESTART:42.193123;
#SAMPLELENGTH:12.000000;
#SELECTABLE:YES;
#BPMS:0.000=146.000;
#STOPS:;
#DELAYS:;
#WARPS:;
#TIMESIGNATURES:0.000=4=4;
#TICKCOUNTS:0.000=4;
#COMBOS:0.000=1;
#SPEEDS:0.000=1.000=0.000=0;
#SCROLLS:0.000=1.000;
#FAKES:;
#LABELS:0.000=Song Start;
#BGCHANGES:;
#KEYSOUNDS:;
#ATTACKS:
;

//---------------dance-single - Basic----------------
#NOTEDATA:;
#CHARTNAME:Basic;
#STEPSTYPE:dance-single;
#DESCRIPTION:Basic;
#CHARTSTYLE:;
#DIFFICULTY:Easy;
#METER:6;
#RADARVALUES:0.158601,0.154436,0.004320,0.017280,0.000000,257.000000,256.000000,1.000000,4.000000,0.000000,0.000000,0.000000,0.000000,0.000000,0.158601,0.154436,0.004320,0.017280,0.000000,257.000000,256.000000,1.000000,4.000000,0.000000,0.000000,0.000000,0.000000,0.000000;
#CREDIT:Basic;
#NOTES:
2000
0000
0000
0000
,
0000
0000
0000
3000
,
0002
0000
0000
0000
,
0000
0000
0000
0003
,
2000
0000
0000
0000
,
0000
3000
0000
0020
,
0000
0000
0000
0000
,
0000
0000
0000
0030
,
0100
0100
0010
1000
,
0010
0100
0010
1000
,
0001
0010
0010
0010
,
0100
0100
0100
0001
,
0001
0001
0100
0100
,
0100
1000
1000
0010
,
0100
0001
1000
0001
,
0100
1000
0010
0100
,
1000
0001
0100
0010
,
1000
0100
1000
0010
,
1000
0001
0100
0100
,
1000
0001
0100
0100
,
1000
0001
0010
0010
,
0001
0100
0010
0100
,
0001
0100
1000
0010
,
0001
0100
1000
0010
,
0100
0001
0010
1000
,
0100
0100
0100
0010
,
0010
0010
0001
0010
,
0010
0010
0100
0100
,
1000
0100
0100
0100
,
1000
0100
0100
0010
,
0010
0010
0100
0100
,
0100
1000
0010
0001
,
0010
0100
0010
0100
,
0100
0100
0001
0001
,
0001
0001
0100
0001
,
0001
0001
0100
0001
,
0010
1000
0100
0010
,
1000
1000
0010
1000
,
0010
1000
0100
0100
,
0100
0010
0010
0010
,
0001
1000
0010
0100
,
0001
0100
0010
0100
,
1000
0001
1000
0010
,
0100
1000
0100
0010
,
0001
0100
1000
0001
,
0100
0010
1000
0001
,
0000
1000
0010
0001
,
0000
0100
0001
0010
,
0100
1000
0000
0100
,
1000
0100
0010
0100
,
1000
0001
0010
0100
,
0001
1000
0100
0010
,
0100
0010
0100
1000
,
0100
0001
0001
0100
,
0010
0001
0100
1000
,
0100
0010
0010
0100
,
0010
1000
0001
0100
,
0010
0010
0010
0010
,
1000
1001
0001
0100
,
0001
0001
0010
0010
,
0010
0100
0100
1000
,
0100
0001
1000
0001
,
1000
0001
1000
0001
,
0100
0001
1000
0001
,
0001
0100
0010
0010
,
1000
0010
0010
0100
,
1000
0100
0001
0100
,
0001
0100
0010
0100
,
0010
0010
0010
0001
,
0001
1000
1000
1000
,
0001
0010
0010
1000
,
1000
0001
0100
0000
;

//---------------dance-single - Standard----------------
#NOTEDATA:;
#CHARTNAME:Standard;
#STEPSTYPE:dance-single;
#DESCRIPTION:Standard;
#CHARTSTYLE:;
#DIFFICULTY:Medium;
#METER:7;
#RADARVALUES:0.423965,0.449942,0.311031,0.034559,0.000000,687.000000,615.000000,72.000000,8.000000,0.000000,0.000000,0.000000,0.000000,0.000000,0.423965,0.449942,0.311031,0.034559,0.000000,687.000000,615.000000,72.000000,8.000000,0.000000,0.000000,0.000000,0.000000,0.000000;
#CREDIT:Standard;
#NOTES:
0002
0000
0100
0000
0003
0000
0001
0000
,
0002
0000
0100
0000
0003
0000
0001
0000
,
2000
0000
0100
0000
3000
0000
1000
0000
,
0002
0000
0100
0000
0003
0000
0020
0000
,
2000
0000
0010
0000
3000
0000
1030
0000
,
0000
0000
0000
0000
1000
0000
0020
0000
,
0002
0000
0100
0000
0002
0000
0001
0000
,
1000
0000
0000
0000
1003
0000
0000
0100
,
1000
0000
0001
0000
1000
0000
0000
0100
,
0001
0000
1000
0000
0001
0000
0000
0100
,
1000
0000
0001
0000
1000
0000
0000
0100
,
0001
0000
1000
0000
0001
0000
0000
0010
,
0001
0000
1000
0000
0001
0000
0000
0100
,
1000
0000
0001
0000
1000
0000
0000
0010
,
0001
0000
1000
0000
0001
0000
0000
0100
,
0001
0000
1000
0000
0001
0000
0000
0010
,
1000
0000
0011
0000
0001
0000
0001
0010
,
0001
0000
0100
0000
0010
0000
0010
1000
,
1000
0000
0011
0000
0001
0000
0001
0010
,
1000
0000
0101
0000
0001
0000
0001
0100
,
1000
0000
0101
0000
0001
0000
0001
0100
,
0001
0000
0100
0000
0010
0000
0010
1000
,
0001
0000
0110
0000
0001
0100
0100
0000
,
1000
0000
0000
0000
1000
0000
0000
0100
,
1000
0000
0011
0000
0001
0000
0001
0010
,
0001
0000
1100
0000
1000
0000
1000
0100
,
1000
0000
0101
0000
0001
0000
0001
0100
,
0001
0000
1100
0000
1000
0000
1000
0100
,
1000
0000
0011
0000
0001
0000
0001
0010
,
0001
0000
0100
0000
0010
0000
0010
1000
,
1000
0000
0011
0000
0001
0000
0001
0010
,
0001
0000
1100
0000
1000
0000
1000
0100
,
1000
0000
0011
0000
0001
0000
0001
0010
,
0001
0000
1010
0000
1000
0000
1000
0010
,
1000
0000
0011
0000
0001
0000
0001
0010
,
0001
0000
1010
0000
1000
0000
1000
0010
,
0001
0000
0011
0000
0001
0000
0100
0001
,
1000
0000
0011
0000
0001
0000
0001
0010
,
1000
0000
0011
0000
0001
0000
0001
0010
,
0001
0000
0110
0000
0020
0000
0100
0000
,
1000
0000
1000
0000
0100
0000
0010
0000
,
1000
0000
1000
0000
0020
0000
0010
0000
,
1000
0000
1000
0000
0230
0000
0100
0000
,
1000
0000
1000
0000
0010
0000
0100
0000
,
1000
0000
0010
0000
1000
0000
0100
0000
,
1000
0000
1000
0000
0100
0000
0010
0000
,
0001
0000
0001
0000
0010
0000
0100
0000
,
1000
0000
0010
0000
0001
0000
0320
0000
,
1000
0000
1000
0000
0100
0000
0010
0000
,
0001
0000
0001
0000
0010
0000
0100
0000
,
0001
0000
0001
0000
0010
0000
0032
0000
,
0001
0000
0001
0000
0100
0000
0010
0000
,
1000
0000
1000
0000
0100
0000
0010
0000
,
1000
0000
1000
0000
0100
0000
0010
0000
,
1003
0000
1000
0000
0010
0000
0100
0100
,
1000
0100
0010
0000
2000
0000
0001
0000
,
1000
0000
1000
0000
0100
0000
3020
0000
,
1000
0000
1000
0000
0100
0000
0010
0000
,
1000
0000
1000
0000
0100
0000
0010
0000
,
0001
0000
0001
0000
0010
0000
0100
0000
,
0001
0000
0001
0000
0010
0000
0130
0100
,
0200
0000
0001
0000
0100
0000
0010
0000
,
0001
0000
0100
0000
0010
0000
2300
0000
,
1000
0000
0010
0000
0001
0000
3001
0000
,
0001
0000
0011
0000
0001
0000
0100
0001
,
1000
0000
0011
0000
0001
0000
0001
0010
,
1000
0000
0101
0000
0001
0000
0001
0100
,
1000
0000
0101
0000
0001
0000
0001
0100
,
1000
0000
0011
0000
0001
0000
0001
0010
,
0001
0000
0100
0000
0010
0000
0010
1000
,
1000
0000
0011
0000
0001
0000
0001
0010
,
1000
0000
0101
0000
0001
0000
0001
0100
,
1000
0000
0101
0000
0001
0000
0001
0100
,
1000
0000
0101
0000
0001
0000
0001
0100
,
1000
0000
0101
0000
0001
0000
0001
0100
,
1000
0000
0101
0000
0001
0000
0001
0100
,
1000
0000
0011
0000
0001
0000
0001
0010
,
1000
0000
0101
0000
0001
0000
0001
0100
,
0001
0000
1100
0000
1000
0000
1000
0100
,
0001
0000
1100
0000
1000
0000
1000
0100
,
1000
0000
0011
0000
0001
0000
0001
0010
,
0001
0000
1100
0000
1000
0000
1000
0100
,
0001
0000
1010
0000
1000
0000
1000
0010
,
1000
0000
0101
0000
0001
0000
0001
0100
,
1000
0000
0011
0000
0001
0000
0001
0010
,
0001
0000
0100
0000
0010
0000
0010
1000
,
1000
0000
0011
0000
0001
0000
0001
0010
,
0001
0000
0110
0000
2000
0000
0100
0000
,
1000
0000
1000
0000
0100
0000
0010
0000
,
0001
0000
0001
0000
0010
0000
0100
0000
,
1000
0000
1000
0000
0100
0000
0010
0000
,
0001
0000
0001
0000
0010
0000
0100
0000
,
0001
0000
0001
0000
0100
0000
0010
0000
,
1000
0000
1000
0000
0010
0000
0100
0000
,
1000
0000
1000
0000
0010
0000
3020
0000
,
1000
0000
0010
0000
0001
0000
0031
0000
,
1000
0000
0011
0000
0001
0000
0001
0010
,
1000
0000
0011
0000
0001
0000
0001
0010
,
0001
0000
1010
0000
1000
0000
1000
0010
,
0001
0000
1010
0000
1000
0000
1000
0010
,
1000
0000
0011
0000
0001
0000
0001
0010
,
0001
0000
0100
0000
0010
0000
0010
1000
,
1000
0000
0011
0000
0001
0000
0001
0010
,
0001
0000
1100
0000
1000
0000
1000
0100
,
1000
0000
0011
0000
0001
0000
0001
0010
,
0001
0000
1100
0000
1000
0000
1000
0100
,
0001
0000
0011
0000
0001
0000
0100
0001
,
1000
0000
1100
0000
1000
0000
0010
1000
,
0001
0000
0110
0000
0001
0000
0000
0100
,
1000
0000
0011
0000
0001
0000
0001
0010
,
0001
0000
1010
0000
1000
0000
1000
0010
,
0001
0000
0011
0000
0001
0000
0100
0001
,
1000
0000
1100
0000
1000
0000
0010
1000
,
0001
0000
0100
0000
0010
0010
0100
0001
,
1000
0000
0011
0000
0001
0000
0001
0010
,
0001
0000
1100
0000
0100
0001
0100
0010
,
0001
0000
0011
0000
0001
0000
0100
0001
,
0001
0000
0100
0000
0010
0010
0100
0001
,
1000
0000
0011
0000
0001
0000
0001
0010
,
0001
0000
1100
0000
0100
0001
0200
0000
,
0001
0000
0001
0000
0001
0000
0000
0000
,
0000
0000
0300
0001
1000
0100
0200
0000
,
0001
0000
0001
0000
0001
0000
0000
0000
,
0000
0000
0300
0001
0100
0010
0020
0000
,
0001
0000
0001
0000
0001
0000
0000
0000
,
0000
0000
0030
0001
0100
0010
0002
0000
,
0001
0000
0001
0000
0001
0000
0003
0000
,
0000
0000
0000
0001
0100
0010
0000
1000
,
1000
0000
0011
0000
0001
0000
0001
0010
,
0001
0000
0100
0000
0010
0000
0010
1000
,
1000
0000
0011
0000
0001
0000
0001
0010
,
0001
0000
1100
0000
0100
0001
0100
0010
,
1000
0000
0011
0000
0001
0000
0001
0010
,
0001
0000
0100
0000
0010
0000
0010
1000
,
1000
0000
0011
0000
0001
0000
0001
0010
,
0001
0000
1100
0000
0100
0001
0100
0010
,
0001
0000
0011
0000
0001
0000
0100
0001
,
0001
0000
1100
0000
0100
0001
0100
0010
,
1000
0000
0011
0000
0001
0000
0001
0010
,
;

//---------------dance-single - Heavy----------------
#NOTEDATA:;
#CHARTNAME:Heavy;
#STEPSTYPE:dance-single;
#DESCRIPTION:Heavy;
#CHARTSTYLE:;
#DIFFICULTY:Hard;
#METER:8;
#RADARVALUES:0.478272,0.479938,0.311031,0.043199,0.000000,775.000000,703.000000,72.000000,10.000000,0.000000,1.000000,0.000000,0.000000,0.000000,0.478272,0.479938,0.311031,0.043199,0.000000,775.000000,703.000000,72.000000,10.000000,0.000000,1.000000,0.000000,0.000000,0.000000;
#CREDIT:Heavy;
#NOTES:
2000
0000
0010
0000
3000
0000
1000
0000
,
0002
0000
0100
0000
0003
0000
0001
0000
,
0002
0000
0010
0000
0003
0000
0001
0000
,
2000
0000
0010
0000
3000
0000
0020
0000
,
0002
0000
0100
0000
0003
0000
0031
0000
,
0000
0000
0000
0000
0001
0000
2000
0000
,
2000
0000
0010
0000
3200
0000
1000
0000
,
0001
0000
0000
0000
0301
1000
0000
0100
,
0000
1000
0100
0000
0010
0100
0000
0010
,
0000
0001
0100
0000
0010
0100
0000
0010
,
0000
0001
0010
0000
0100
0010
0000
0100
,
0000
1000
0010
0000
0100
0010
0000
0100
,
0000
0001
0100
0000
0010
0100
0000
0010
,
0000
1000
0010
0000
0100
0010
0000
0100
,
0000
0001
0010
0000
0100
0010
0000
0100
,
0000
0001
0100
0000
0010
0100
0000
0010
,
1000
0000
1010
0000
1000
0100
0100
1000
,
0001
0000
0100
0010
1000
0000
1000
0100
,
1000
0000
1010
0000
1000
0100
0100
1000
,
1000
0000
1100
0000
1000
0010
0010
1000
,
1000
0000
1010
0000
1000
0100
0100
1000
,
0001
0000
0100
0010
1000
0000
1000
0100
,
0001
0000
1001
0000
0001
0100
0100
0000
,
0001
0000
0000
0000
0001
1000
0000
0100
,
1000
0000
1010
0000
1000
0100
0100
1000
,
1000
0000
1010
0000
1000
0100
0100
1000
,
0001
0000
0101
0000
0001
0010
0010
0001
,
0001
0000
0011
0000
0001
0100
0100
0001
,
1000
0000
1100
0000
1000
0010
0010
1000
,
0001
0000
0100
0010
1000
0000
1000
0100
,
1000
0000
1010
0000
1000
0100
0100
1000
,
0001
0000
0101
0000
0001
0010
0010
0001
,
0001
0000
0101
0000
0001
0010
0010
0001
,
0001
0000
0011
0000
0001
0100
0100
0001
,
0001
0000
0011
0000
0001
0100
0100
0001
,
0001
0000
0011
0000
0001
0100
0100
0001
,
1000
0000
0101
0000
0100
0000
0010
0100
,
1000
0000
1010
0000
1000
0100
0100
1000
,
0001
0000
0101
0000
0001
0010
0010
0001
,
0001
0000
1001
0000
0002
0000
0100
0000
,
0001
0000
0010
0000
0100
0000
1000
0000
,
1000
0000
0100
0000
2003
0000
0001
0000
,
1000
0000
0100
0000
2000
0000
0001
0000
,
1000
0000
0010
0000
0100
0000
0001
0000
,
1000
0000
0100
0000
0001
0000
1000
0000
,
0001
0000
0010
0000
0100
0000
1000
0000
,
1000
0000
0010
0000
0100
0000
0001
0000
,
0001
0000
0010
0000
1000
0000
3002
0000
,
0001
0000
0010
0000
0100
0000
1000
0000
,
1000
0000
0100
0000
0010
0000
0001
0000
,
1000
0000
0100
0000
0010
0000
0203
0000
,
1000
0000
0010
0000
0100
0000
0001
0000
,
1000
0000
0100
0000
0010
0000
0001
0000
,
1000
0000
0010
0000
0100
0000
0001
0000
,
0301
0010
0010
0000
0100
0000
1000
1000
,
0001
0100
0010
0010
2000
0000
0010
0000
,
0001
0000
0010
0000
0100
0000
3020
0000
,
1000
0000
0010
0000
0100
0000
0001
0000
,
0001
0000
0010
0000
0100
0000
1000
0000
,
0001
0000
0100
0000
0010
0000
1000
0000
,
1000
0000
0100
0000
0010
0000
0031
0001
,
0020
0000
0010
0000
0100
0000
1000
0000
,
1000
0000
0010
0000
0010
0000
0032
0000
,
0001
0000
0010
0000
1000
0000
0013
0001
,
1000
0000
0101
0000
0100
0000
0010
0100
,
1000
0000
1010
0000
1000
0100
0100
1000
,
1000
0000
1100
0000
1000
0010
0010
1000
,
1000
0000
1100
0000
1000
0010
0010
1000
,
1000
0000
1100
0000
1000
0010
0010
1000
,
0001
0000
0100
0010
1000
0000
1000
0100
,
1000
0000
1010
0000
1000
0100
0100
1000
,
1000
0000
1100
0000
1000
0010
0010
1000
,
1000
0000
1100
0000
1000
0010
0010
1000
,
0001
0000
0011
0000
0001
0100
0100
0001
,
0001
0000
0101
0000
0001
0010
0010
0001
,
0001
0000
0101
0000
0001
0010
0010
0001
,
0001
0000
0101
0000
0001
0010
0010
0001
,
1000
0000
1010
0000
1000
0100
0100
1000
,
0001
0000
0011
0000
0001
0100
0100
0001
,
1000
0000
1010
0000
1000
0100
0100
1000
,
1000
0000
1010
0000
1000
0100
0100
1000
,
1000
0000
1100
0000
1000
0010
0010
1000
,
1000
0000
1100
0000
1000
0010
0010
1000
,
0001
0000
0011
0000
0001
0100
0100
0001
,
1000
0000
1100
0000
1000
0010
0010
1000
,
0001
0000
0100
0010
1000
0000
1000
0100
,
1000
0000
1010
0000
1000
0100
0100
1000
,
0001
0000
1001
0000
0200
0000
0100
0000
,
0001
0000
0010
0000
0100
0000
1000
0000
,
0001
0000
0010
0000
0100
0000
1000
0000
,
1000
0000
0010
0000
0100
0000
0001
0000
,
1000
0000
0010
0000
0100
0000
0001
0000
,
1000
0000
0010
0000
0100
0000
0001
0000
,
0001
0000
0100
0000
0010
0000
1000
0000
,
0001
0000
0010
0000
0100
0000
2300
0000
,
0001
0000
0010
0000
1000
0000
3010
0001
,
1000
0000
1010
0000
1000
0100
0100
1000
,
0001
0000
0011
0000
0001
0100
0100
0001
,
0001
0000
0101
0000
0001
0010
0010
0001
,
0001
0000
0011
0000
0001
0100
0100
0001
,
0001
0000
0011
0000
0001
0100
0100
0001
,
0001
0000
0100
0010
1000
0000
1000
0100
,
1000
0000
1010
0000
1000
0100
0100
1000
,
1000
0000
1010
0000
1000
0100
0100
1000
,
0001
0000
0011
0000
0001
0100
0100
0001
,
0001
0000
0101
0000
0001
0010
0010
0001
,
1000
0000
0101
0000
0100
0000
0010
0100
,
0001
0000
1100
0000
0100
0000
0010
0100
,
1000
0000
0011
0000
1000
0010
0000
0100
,
1000
0000
1010
0000
1000
0100
0100
1000
,
0001
0000
0101
0000
0001
0010
0010
0001
,
1000
0000
0101
0000
0100
0000
0010
0100
,
1000
0000
0101
0000
0100
0000
0010
0100
,
0001
0000
1000
0001
0100
0100
0010
1000
,
1000
0000
1010
0000
1000
0100
0100
1000
,
0001
0000
1001
0000
0010
0001
1000
0001
,
1000
0000
0101
0000
0100
0000
0010
0100
,
0001
0000
1000
0001
0100
0100
0010
1000
,
1000
0000
1010
0000
1000
0100
0100
1000
,
0001
0000
1001
0000
0010
0001
2000
0000
,
0001
0000
0001
0000
0001
0000
1000
0000
,
1000
0000
3000
0001
0010
0001
0020
0000
,
0001
0000
0001
0000
0001
0000
1000
0000
,
0000
0000
0030
0001
1000
0100
2000
0000
,
0001
0000
0001
0000
0001
0000
1000
0000
,
0000
0000
3000
0001
1000
0100
0002
0000
,
0001
0000
0001
0000
0001
0000
1003
0000
,
0000
0000
0000
0001
1000
0100
0010
0100
,
1000
0000
1010
0000
1000
0100
0100
1000
,
0001
0000
0100
0010
1000
0000
1000
0100
,
1000
0000
1010
0000
1000
0100
0100
1000
,
0001
0000
1001
0000
0010
0001
1000
0001
,
1000
0000
1010
0000
1000
0100
0100
1000
,
0001
0000
0100
0010
1000
0000
1000
0100
,
1000
0000
1010
0000
1000
0100
0100
1000
,
0001
0000
1001
0000
0010
0001
1000
0001
,
1000
0000
0101
0000
0100
0000
0010
0100
,
0001
0000
1001
0000
0010
0001
1000
0001
,
1000
0000
1010
0000
1000
0100
0100
1000
,
;

//---------------dance-single - Basic----------------
#NOTEDATA:;
#CHARTNAME:;
#STEPSTYPE:dance-single;
#DESCRIPTION:Basic;
#CHARTSTYLE:;
#DIFFICULTY:Beginner;
#METER:6;
#RADARVALUES:0.149344,0.186619,0.008640,0.021599,0.000000,242.000000,240.000000,2.000000,5.000000,0.000000,0.000000,0.000000,0.000000,0.000000,0.149344,0.186619,0.008640,0.021599,0.000000,242.000000,240.000000,2.000000,5.000000,0.000000,0.000000,0.000000,0.000000,0.000000;
#CREDIT:;
#NOTES:
// measure 0
2002
0000
0000
0000
,  // measure 1
0000
0000
0000
0000
,  // measure 2
3003
0100
0010
0100
,  // measure 3
2000
0000
0000
0000
,  // measure 4
0000
3000
0010
0100
,  // measure 5
0010
0100
0002
0000
,  // measure 6
0000
0000
0000
0000
,  // measure 7
0000
0000
0000
0003
,  // measure 8
1000
0000
0010
0000
,  // measure 9
0010
0000
0010
0000
,  // measure 10
0100
0001
0100
0000
,  // measure 11
0100
0010
0000
0001
,  // measure 12
0000
0100
0000
0010
,  // measure 13
0000
1000
0000
0010
,  // measure 14
0000
0001
0000
0001
,  // measure 15
0000
1000
0010
0000
,  // measure 16
1000
0001
0100
0000
,  // measure 17
0001
0000
1000
0010
,  // measure 18
0001
0001
0100
0000
,  // measure 19
1000
0001
0100
0000
,  // measure 20
1000
0001
0000
0010
,  // measure 21
1000
0000
0010
0000
,  // measure 22
0001
0100
1000
0010
,  // measure 23
0000
0100
0000
0010
,  // measure 24
0000
0001
0000
0001
,  // measure 25
0000
0010
0000
0010
,  // measure 26
0000
0100
0000
0010
,  // measure 27
0000
0010
0100
0001
,  // measure 28
1000
0000
1000
0000
,  // measure 29
1000
0000
1000
0000
,  // measure 30
1000
0010
0000
0001
,  // measure 31
0000
0001
0000
1000
,  // measure 32
0010
0000
0010
0000
,  // measure 33
0001
0000
0001
0100
,  // measure 34
0000
1000
0000
1000
,  // measure 35
0000
0001
0000
1000
,  // measure 36
0000
0001
0000
0010
,  // measure 37
0000
1000
0000
0010
,  // measure 38
0000
0001
0000
0010
,  // measure 39
1000
0000
0100
0000
,  // measure 40
0001
0000
0010
0000
,  // measure 41
1000
0000
0010
0000
,  // measure 42
1000
0001
0000
0010
,  // measure 43
0000
0001
0100
0000
,  // measure 44
0001
0000
1000
0001
,  // measure 45
0000
0010
1000
0001
,  // measure 46
0000
1000
0000
0001
,  // measure 47
0000
0100
0000
0010
,  // measure 48
0000
0001
0000
0100
,  // measure 49
0000
0100
0010
0000
,  // measure 50
1000
0001
0000
0100
,  // measure 51
0001
1000
0000
1000
,  // measure 52
1000
0010
1000
1000
,  // measure 53
0100
0001
0001
0100
,  // measure 54
0000
0001
0000
1000
,  // measure 55
0000
0010
0000
0100
,  // measure 56
0000
1000
0001
0000
,  // measure 57
0010
0000
0010
0000
,  // measure 58
0100
0000
0010
0000
,  // measure 59
0001
0000
0010
0000
,  // measure 60
0010
0000
0010
0000
,  // measure 61
0100
0001
1000
0001
,  // measure 62
1000
0001
1000
0001
,  // measure 63
0000
0001
0001
0000
,  // measure 64
0010
0010
0010
0010
,  // measure 65
1000
0010
0010
0100
,  // measure 66
0100
0100
0000
0100
,  // measure 67
0100
0100
0010
0100
,  // measure 68
0010
0010
1000
1000
,  // measure 69
0001
0001
1000
1000
,  // measure 70
0001
0001
0100
0100
,  // measure 71
0100
0010
0010
0010
,  // measure 72
0100
0100
0100
0000
,  // measure 73
0001
0001
0001
0001
,  // measure 74
0001
0000
0010
0000
,  // measure 75
0100
0001
0000
0100
,  // measure 76
0000
0000
0100
0000
,  // measure 77
0010
0000
0001
0000
,  // measure 78
0100
0001
0000
0100
,  // measure 79
0000
0001
0000
0100
,  // measure 80
0000
1000
0000
0001
,  // measure 81
0000
1000
0000
0001
,  // measure 82
0000
0010
0000
0100
,  // measure 83
0000
0001
0000
0100
,  // measure 84
0001
1000
0010
0010
,  // measure 85
0001
0100
0010
0100
,  // measure 86
0001
0001
0100
0100
,  // measure 87
0001
0100
0100
0010
,  // measure 88
0010
0000
0100
0000
,  // measure 89
0100
0000
0100
0000
,  // measure 90
0010
1000
0010
0000
,  // measure 91
0100
0000
0100
0000
,  // measure 92
0100
0000
0001
0000
,  // measure 93
0010
1000
0000
0010
,  // measure 94
0000
1000
0010
0002
,  // measure 95
0000
0000
0000
0003
,  // measure 96
1001
0000
0000
0000
;
