#TITLE:DJ Hero 2 - Replay vs. Rude Boy;
#SUBTITLE:;
#ARTIST:Dancing Monkeys Project;
#TITLETRANSLIT:;
#SUBTITLETRANSLIT:;
#ARTISTTRANSLIT:;
#GENRE:;
#CREDIT:Gorilla v1.1.3 (Dancing Monkeys v1.06);
#BANNER:jmaxresdefault.png;
#BACKGROUND:maxresdefault.png;
#LYRICSPATH:;
#CDTITLE:;
#MUSIC:DJ Hero 2 - Replay vs. Rude Boy.mp3;
#OFFSET:-1.051270;
#SAMPLESTART:38.384605;
#SAMPLELENGTH:12.000000;
#SELECTABLE:YES;
#BPMS:0.000000=180.000000
;
#STOPS:
;
#BGCHANGES:;
#KEYSOUNDS:;
#ATTACKS:;

//---------------dance-single - Basic----------------
#NOTES:
     dance-single:
     Basic:
     Easy:
     2:
     0.143461,0.216895,0.000000,0.087125,0.000000,219.000000,219.000000,0.000000,19.000000,0.000000,0.000000,0.143461,0.216895,0.000000,0.087125,0.000000,219.000000,219.000000,0.000000,19.000000,0.000000,0.000000:
// measure 0
0000
0000
0000
0000
,  // measure 1
0000
0000
0000
0000
,  // measure 2
0000
0000
0000
0000
,  // measure 3
0001
0000
0000
0000
,  // measure 4
0001
0000
0000
0000
,  // measure 5
1000
0000
0000
0000
,  // measure 6
0001
0000
0000
0000
,  // measure 7
0020
0000
0000
0000
,  // measure 8
0000
0030
1000
0000
,  // measure 9
0200
0000
0000
0000
,  // measure 10
0000
0300
0100
1000
,  // measure 11
0200
0000
0000
0000
,  // measure 12
0000
0300
0100
1000
,  // measure 13
1000
0000
0000
0000
,  // measure 14
1000
0001
0000
0000
,  // measure 15
1000
0001
0000
0000
,  // measure 16
1000
0001
0000
0000
,  // measure 17
0020
0000
0000
0000
,  // measure 18
0030
0001
0000
0000
,  // measure 19
0001
1000
0000
0000
,  // measure 20
1000
0001
0000
0000
,  // measure 21
0001
1000
1000
0000
,  // measure 22
1000
0001
0000
0000
,  // measure 23
1000
0001
0000
0000
,  // measure 24
0002
0000
0000
0000
,  // measure 25
0000
0003
1000
0000
,  // measure 26
0002
0000
0000
0000
,  // measure 27
0003
1000
0000
0000
,  // measure 28
1000
0001
0000
0000
,  // measure 29
0002
0000
0000
0000
,  // measure 30
0000
0003
1000
0000
,  // measure 31
0001
0000
0100
0010
,  // measure 32
1000
0001
0000
0000
,  // measure 33
1000
0001
0000
0000
,  // measure 34
0001
1000
0000
0000
,  // measure 35
1000
0001
0000
0000
,  // measure 36
0001
1000
1000
0000
,  // measure 37
1000
0001
0000
0000
,  // measure 38
0001
1000
1000
0000
,  // measure 39
1000
0001
0000
0000
,  // measure 40
1000
0010
0010
0000
,  // measure 41
1000
0001
0000
0000
,  // measure 42
2000
0000
0000
0000
,  // measure 43
3000
1000
0000
0000
,  // measure 44
1000
0001
0000
0000
,  // measure 45
1000
0001
0000
0000
,  // measure 46
1000
0001
0000
0000
,  // measure 47
0001
1000
0000
0000
,  // measure 48
0001
1000
0010
0010
,  // measure 49
1000
0000
0000
0000
,  // measure 50
1000
0001
0000
0000
,  // measure 51
1000
0001
0000
0000
,  // measure 52
0001
1000
0000
0000
,  // measure 53
0001
1000
0010
0010
,  // measure 54
1000
0001
0000
0000
,  // measure 55
0001
1000
0010
0010
,  // measure 56
1000
0000
0000
0000
,  // measure 57
0200
0000
0000
0000
,  // measure 58
0300
1000
0000
0000
,  // measure 59
0200
0000
0000
0000
,  // measure 60
0000
0300
0000
0000
,  // measure 61
0020
0000
0000
0000
,  // measure 62
0030
1000
1000
0000
,  // measure 63
1000
0001
0000
0000
,  // measure 64
1000
0010
0010
0000
,  // measure 65
0001
1000
1000
0000
,  // measure 66
1000
0010
0010
1000
,  // measure 67
0200
0000
0000
0000
,  // measure 68
0300
1000
0100
1000
,  // measure 69
1000
0001
0000
0000
,  // measure 70
1000
0001
0000
0000
,  // measure 71
0001
1000
1000
0000
,  // measure 72
1000
0001
0000
0000
,  // measure 73
0001
1000
1000
0000
,  // measure 74
1000
0001
0000
0000
,  // measure 75
0001
2000
0000
0000
,  // measure 76
0000
0000
3000
0000
,  // measure 77
2000
0000
0000
0000
,  // measure 78
0000
3000
0000
0000
,  // measure 79
0200
0000
0000
0000
,  // measure 80
0000
0300
0000
0000
,  // measure 81
0001
1000
0000
0000
,  // measure 82
2000
0000
0000
3000
,  // measure 83
1000
0001
0000
0000
,  // measure 84
1000
0001
0000
0000
,  // measure 85
0001
1000
0000
0000
,  // measure 86
1000
0001
0000
0000
,  // measure 87
1000
0001
0000
0000
,  // measure 88
1000
0001
0000
0000
,  // measure 89
0001
1000
0000
0000
,  // measure 90
1000
0001
0000
0000
,  // measure 91
0001
1000
0010
0010
,  // measure 92
1000
0010
0010
0000
,  // measure 93
1000
0001
0000
0000
,  // measure 94
0001
1000
0000
0000
,  // measure 95
1000
0001
0000
0000
,  // measure 96
0001
1000
0010
0010
,  // measure 97
0001
0000
0100
0010
,  // measure 98
0001
1000
0010
0010
,  // measure 99
0001
2000
0000
0000
,  // measure 100
0000
3000
1000
0000
,  // measure 101
1000
0010
0010
0000
,  // measure 102
0001
1000
1000
0000
,  // measure 103
1000
0010
0010
0000
,  // measure 104
1000
0001
0000
0000
,  // measure 105
0001
1000
0000
0000
,  // measure 106
1000
0002
0000
0000
,  // measure 107
0000
0000
0000
0000
,  // measure 108
0003
0002
0000
0000
,  // measure 109
0000
0003
0000
0000
,  // measure 110
0001
1000
0000
0000
,  // measure 111
1000
0001
0000
0000
,  // measure 112
1000
0001
0000
0000
,  // measure 113
1000
0001
0000
0000
,  // measure 114
0001
1000
0000
0000
,  // measure 115
0001
1000
1000
0000
,  // measure 116
1000
0001
0000
0000
,  // measure 117
1000
0001
0000
0000
,  // measure 118
1000
0001
0000
0000
;

//---------------dance-single - Standard----------------
#NOTES:
     dance-single:
     Standard:
     Medium:
     3:
     0.184076,0.327864,0.000000,0.091710,0.000000,281.000000,281.000000,0.000000,20.000000,0.000000,0.000000,0.184076,0.327864,0.000000,0.091710,0.000000,281.000000,281.000000,0.000000,20.000000,0.000000,0.000000:
0001
0000
0000
0000
0000
0000
0000
0000
,
1000
0000
0000
0000
0000
0000
0000
0000
,
1000
0000
0000
0000
0000
0000
0000
0000
,
1000
0000
0000
0000
0000
0000
0000
0000
,
0001
0000
0000
0000
0000
0000
0000
0000
,
1000
0000
0000
0000
0000
0000
0000
0000
,
1000
0000
0000
0000
0000
0000
0000
0000
,
2000
0000
0000
0000
0000
0000
0000
0000
,
0000
0000
3100
0000
0100
0000
0000
0000
,
0200
0000
0000
0000
0000
0000
0000
0000
,
0000
0000
1300
0000
0100
0000
0010
0000
,
0200
0000
0000
0000
0000
0000
0000
0000
,
0000
0000
1300
0000
0100
0000
0010
0000
,
0001
0000
0000
0000
0000
0000
0000
0000
,
1000
0000
0100
0000
0000
0000
0000
0000
,
1000
0000
0100
0000
0000
0000
0000
0000
,
0001
0000
0010
0000
0000
0000
0000
0000
,
0200
0000
1000
0000
0000
0000
0000
0000
,
0300
0000
0100
0000
0000
0000
0000
0000
,
0001
0000
0010
0000
0000
0000
0000
0000
,
1000
0000
0010
0000
0000
0000
0000
0000
,
1000
0000
0100
0000
0100
0000
0000
0000
,
1000
0000
0100
0000
0000
0000
0000
0000
,
0001
0000
0100
0000
0000
0000
0000
0000
,
0200
0000
0010
0000
0000
0000
0000
0000
,
0000
0000
0300
0000
0100
0000
0000
0000
,
0020
0000
0100
0000
0000
0000
0000
0000
,
0030
0000
0010
0000
0000
0000
0000
0000
,
0001
0000
0010
0000
0000
0000
0000
0000
,
0020
0000
1000
0000
0000
0000
0000
0000
,
0000
0000
0130
0000
0100
0000
0000
0000
,
1000
0000
0000
0001
0000
0000
1000
0000
,
1000
0000
0100
0000
0000
0000
0000
0000
,
0001
0000
0100
0000
0000
0000
0000
0000
,
0001
0000
0100
0000
0000
0000
0000
0000
,
1000
0000
0100
0000
0000
0000
0000
0000
,
1000
0000
0100
0000
0100
0000
0000
0000
,
1000
0000
0100
0000
0000
0000
0000
0000
,
1000
0000
0100
0000
0100
0000
0000
0000
,
1000
0000
0100
0000
0000
0000
0000
0000
,
0001
0000
1000
0000
1000
0000
0000
0000
,
1000
0000
0100
0000
0000
0000
0000
0000
,
2000
0000
0100
0000
0000
0000
0000
0000
,
3000
0000
0100
0000
0000
0000
0000
0000
,
1000
0000
0010
0000
0000
0000
0000
0000
,
1000
0000
0100
0000
0000
0000
0000
0000
,
1000
0000
0100
0000
0000
0000
0000
0000
,
0001
0000
0010
0000
0000
0000
0000
0000
,
1000
0000
0010
0000
0100
0010
0010
0000
,
0001
0000
0000
0000
0000
0000
0000
0000
,
1000
0000
0100
0000
0000
0000
0000
0000
,
0001
0000
0010
0000
0000
0000
0000
0000
,
1000
0000
0010
0000
0000
0000
0000
0000
,
1000
0000
0010
0000
0100
0010
0010
0000
,
1000
0000
0100
0000
0000
0000
0000
0000
,
1000
0000
0010
0000
0100
0010
0010
0000
,
0001
0000
0000
0000
0000
0000
0000
0000
,
0002
0000
0100
0000
0000
0000
0000
0000
,
0003
0000
0010
0000
0000
0000
0000
0000
,
0020
0000
0010
0000
0000
0000
0000
0000
,
0000
0000
0130
0000
0000
0000
0000
0000
,
0200
0000
0000
0000
0000
0000
0000
0000
,
0300
0000
0100
0000
0100
0000
0000
0000
,
1000
0000
0100
0000
0000
0000
0000
0000
,
0001
0000
1000
0000
1000
0000
0000
0000
,
1000
0000
0100
0000
0100
0000
0000
0000
,
0001
1000
0001
0100
0100
0010
0100
0000
,
0002
0000
1000
0000
0000
0000
0000
0000
,
0003
0000
1000
0000
0100
0000
0010
0000
,
1000
0000
0100
0000
0000
0000
0000
0000
,
1000
0000
0100
0000
0000
0000
0000
0000
,
1000
0000
0100
0000
0100
0000
0000
0000
,
1000
0000
0100
0000
0000
0000
0000
0000
,
1000
0000
0100
0000
0100
0000
0000
0000
,
1000
0000
0100
0000
0000
0000
0000
0000
,
1000
0000
0100
0000
0100
0000
0000
0000
,
0002
0000
0100
0000
0000
0000
0000
0000
,
0023
0000
0001
0000
0000
0000
3000
0000
,
0000
0000
0130
0000
0000
0000
0000
0000
,
2000
0000
0010
0000
0000
0000
0100
0000
,
0000
0000
3100
0000
0000
0000
0000
0000
,
1000
0000
0100
0000
0000
0000
0000
0000
,
2000
0000
0001
0000
0000
0000
3000
0001
,
1000
0000
0100
0000
0000
0000
0000
0000
,
0001
0000
0100
0000
0000
0000
0000
0000
,
0001
0000
0100
0000
0000
0000
0000
0000
,
1000
0000
0010
0000
0000
0000
0000
0000
,
1000
0000
0100
0000
0000
0000
0000
0000
,
0001
0000
0100
0000
0000
0000
0000
0000
,
0001
0000
0100
0000
0000
0000
0000
0000
,
1000
0000
0100
0000
0000
0000
0000
0000
,
1000
0000
0010
0000
0100
0010
0010
0000
,
0001
0000
1000
0000
1000
0000
0000
0000
,
1000
0000
0100
0000
0000
0000
0000
0000
,
1000
0000
0100
0000
0000
0000
0000
0000
,
1000
0000
0100
0000
0000
0000
0000
0000
,
1000
0000
0010
0000
0100
0010
0010
0000
,
1000
0000
0000
0001
0000
0000
1000
0000
,
1000
0000
0010
0000
0100
0010
0010
0000
,
1000
0000
0020
0000
0000
0000
0000
0000
,
0000
0000
0130
0000
0100
0000
0000
0000
,
0001
0000
1000
0000
1000
0000
0000
0000
,
1000
0000
0100
0000
0100
0000
0000
0000
,
0001
0000
1000
0000
1000
0000
0000
0000
,
1000
0000
0100
0000
0000
0000
0000
0000
,
0001
0000
0010
0000
0000
0000
0000
0000
,
0001
0000
0002
0000
0000
0000
0000
0000
,
0000
0000
0100
0000
0000
0000
0000
0000
,
0003
0000
0200
0000
0000
0000
0000
0000
,
0000
0000
0310
0000
0000
0000
0000
0000
,
1000
0000
0010
0000
0000
0000
0000
0000
,
1000
0000
0100
0000
0000
0000
0000
0000
,
1000
0000
0100
0000
0000
0000
0000
0000
,
0001
0000
0100
0000
0000
0000
0000
0000
,
1000
0000
0010
0000
0000
0000
0000
0000
,
1000
0000
0100
0000
0100
0000
0000
0000
,
1000
0000
0100
0000
0000
0000
0000
0000
,
1000
0000
0010
0000
0000
0000
0000
0000
,
1000
0000
0010
0000
0000
0000
0000
0000
,
1000
0000
0100
0000
0100
0000
0000
0000
,
1000
0000
0100
0000
0000
0000
0200
0000
,
0000
0000
0010
0000
0000
0000
0000
0000
,
0300
0000
0100
0000
0000
0000
0000
0000
,
1000
0000
0100
0000
0100
0000
0000
0000
,
1000
0000
0100
0000
0000
0000
0002
0000
,
0000
0000
0010
0000
0000
0000
0000
0000
,
0003
0000
0100
0000
0000
0000
0000
0000
,
1000
0000
0100
0000
0100
0000
0000
0000
,
1000
0001
0001
0000
0010
0000
0000
0000
,
0001
0000
0000
0000
0000
0000
0000
0000
,
1000
0000
0000
0000
0000
0000
0000
0000
,
;

//---------------dance-single - Heavy----------------
#NOTES:
     dance-single:
     Heavy:
     Hard:
     4:
     0.247618,0.387476,0.000000,0.091710,0.000000,378.000000,378.000000,0.000000,20.000000,0.000000,0.000000,0.247618,0.387476,0.000000,0.091710,0.000000,378.000000,378.000000,0.000000,20.000000,0.000000,0.000000:
0001
0000
0000
0000
0000
0000
0000
0000
,
1000
0000
0000
0000
0000
0000
0000
0000
,
1000
0000
0000
0000
0000
0000
0000
0000
,
1000
0000
0000
0000
0000
0000
0000
0000
,
1000
0000
0000
0000
0000
0000
0000
0000
,
0001
0000
0000
0000
0000
0000
0000
0000
,
0001
0000
0000
0000
0000
0000
0000
0000
,
0002
0000
0000
0000
0000
0000
0000
0000
,
0000
0000
0013
0000
0010
0000
0010
0000
,
2000
0000
0000
0000
0000
0000
0000
0000
,
0000
0000
3001
0000
0100
0000
0001
0100
,
0002
0000
0000
0000
0000
0000
0000
0000
,
0000
0000
0003
0000
0100
0000
0001
0100
,
0001
0000
0000
0000
0000
0000
0000
0000
,
1000
0000
0001
0000
0001
0000
0000
0000
,
1000
0000
0001
0000
0001
0000
0000
0000
,
1000
0000
0001
0000
0001
0000
0000
0000
,
0002
0000
0001
0000
0000
0000
0000
0000
,
0003
0000
0001
0000
0001
0000
0000
0000
,
1000
0000
0001
0000
0001
0000
0000
0000
,
0001
0000
1000
0000
1000
0000
0000
0000
,
1000
0000
0010
0000
0010
0000
0010
0000
,
1000
0000
0001
0000
0001
0000
0000
0000
,
1000
0000
0001
0000
0001
0000
0000
0000
,
0002
0000
1000
0000
0000
0000
0000
0000
,
0000
0000
0013
0000
0010
0000
0010
0000
,
2000
0000
0001
0000
0000
0000
0000
0000
,
3000
0000
1000
0000
1000
0000
0000
0000
,
0001
0000
1000
0000
1000
0000
0000
0000
,
0020
0000
0001
0000
0000
0000
0000
0000
,
0000
0000
0030
0000
0010
0000
0010
0000
,
1000
0000
0000
0100
0010
0000
0100
0000
,
1000
0000
0001
0000
0001
0000
0000
0000
,
0001
0000
1000
0000
1000
0000
0000
0000
,
1000
0000
0001
0000
0001
0000
0000
0000
,
1000
0000
0001
0000
0001
0000
0000
0000
,
1000
0000
0010
0000
0010
0000
0010
0000
,
1000
0000
0001
0000
0001
0000
0000
0000
,
1000
0000
0010
0000
0010
0000
0010
0000
,
1000
0000
0001
0000
0001
0000
0000
0000
,
0001
0100
0001
0000
0001
0000
0000
0000
,
1000
0000
0001
0000
0001
0000
0000
0000
,
0200
0000
0001
0000
0000
0000
0000
0000
,
0300
0000
0001
0000
0001
0000
0000
0000
,
0001
0000
1000
0000
1000
0000
0000
0000
,
0001
0000
1000
0000
1000
0000
0000
0000
,
0001
0000
1000
0000
1000
0000
0000
0000
,
0001
0000
1000
0000
1000
0000
0000
0000
,
1000
0000
0100
0000
0010
0100
0100
0100
,
0001
0000
0000
0000
0000
0000
0000
0000
,
1000
0000
0001
0000
0001
0000
0000
0000
,
0001
0000
1000
0000
1000
0000
0000
0000
,
0001
0000
1000
0000
1000
0000
0000
0000
,
1000
0000
0100
0000
0010
0100
0100
0100
,
1000
0000
0001
0000
0001
0000
0000
0000
,
1000
0000
0100
0000
0010
0100
0100
0100
,
0001
0000
0000
0000
0000
0000
0000
0000
,
0200
0000
0001
0000
0000
0000
0000
0000
,
0300
0000
0001
0000
0001
0000
0000
0000
,
0002
0000
1000
0000
0000
0000
0000
0000
,
0000
0000
1003
0000
1000
0000
0000
0000
,
0002
0000
0000
0000
0000
0000
0000
0000
,
0003
0000
0010
0000
0010
0000
0010
0000
,
1000
0000
0001
0000
0001
0000
0000
0000
,
0001
0100
0001
0000
0001
0000
0000
0000
,
1000
0000
0010
0000
0010
0000
0010
0000
,
0001
0100
0010
1000
1000
0010
0100
0010
,
0020
0000
0001
0000
0000
0000
0000
0000
,
0030
0000
0001
0000
0100
0000
0001
0100
,
1000
0000
0001
0000
0001
0000
0000
0000
,
1000
0000
0001
0000
0001
0000
0000
0000
,
1000
0000
0010
0000
0010
0000
0010
0000
,
1000
0000
0001
0000
0001
0000
0000
0000
,
1000
0000
0010
0000
0010
0000
0010
0000
,
1000
0000
0001
0000
0001
0000
0000
0000
,
1000
0000
0010
0000
0010
0000
0010
0000
,
0020
0000
0001
0000
0000
0000
0000
0000
,
0032
0000
0010
0000
0000
0000
3000
0000
,
0000
0000
0003
0000
0001
0000
0000
0000
,
2000
0000
0001
0000
0000
0000
0001
0000
,
0000
0000
3001
0000
0001
0000
0000
0000
,
0001
0000
1000
0000
1000
0000
0000
0000
,
2000
0000
0010
0000
0000
0000
3000
0010
,
1000
0000
0001
0000
0001
0000
0000
0000
,
1000
0000
0001
0000
0001
0000
0000
0000
,
0001
0000
1000
0000
1000
0000
0000
0000
,
0001
0000
1000
0000
1000
0000
0000
0000
,
1000
0000
0001
0000
0001
0000
0000
0000
,
0001
0000
1000
0000
1000
0000
0000
0000
,
1000
0000
0001
0000
0001
0000
0000
0000
,
1000
0000
0001
0000
0001
0000
0000
0000
,
1000
0000
0100
0000
0010
0100
0100
0100
,
0001
0100
0001
0000
0001
0000
0000
0000
,
1000
0000
0001
0000
0001
0000
0000
0000
,
1000
0000
0001
0000
0001
0000
0000
0000
,
1000
0000
0001
0000
0001
0000
0000
0000
,
1000
0000
0100
0000
0010
0100
0100
0100
,
1000
0000
0000
0100
0010
0000
0100
0000
,
1000
0000
0100
0000
0010
0100
0100
0100
,
1000
0000
0002
0000
0000
0000
0010
0000
,
0000
0000
0103
0000
0100
0000
0100
0000
,
0001
0100
0001
0000
0001
0000
0000
0000
,
1000
0000
0010
0000
0010
0000
0010
0000
,
0001
0100
0001
0000
0001
0000
0000
0000
,
1000
0000
0001
0000
0001
0000
0000
0000
,
1000
0000
0001
0000
0001
0000
0000
0000
,
0001
0100
2000
0000
0000
0000
0000
0000
,
0000
0000
0001
0000
0000
0000
0000
0000
,
3000
0000
2000
0000
0000
0000
0000
0000
,
0000
0000
3001
0000
0001
0000
0000
0000
,
0001
0000
1000
0000
1000
0000
0000
0000
,
0001
0000
1000
0000
1000
0000
0000
0000
,
1000
0000
0001
0000
0001
0000
0000
0000
,
0001
0000
1000
0000
1000
0000
0000
0000
,
0001
0000
1000
0000
1000
0000
0000
0000
,
1000
0000
0010
0000
0010
0000
0010
0000
,
1000
0000
0001
0000
0001
0000
0000
0000
,
0001
0000
1000
0000
1000
0000
0000
0000
,
1000
0000
0001
0000
0001
0000
0000
0000
,
1000
0000
0010
0000
0010
0000
0010
0000
,
1000
0000
0001
0000
0001
0000
0200
0000
,
0000
0000
1000
0000
0000
0000
0000
0000
,
0300
0000
1000
0000
1000
0000
0000
0000
,
1000
0000
0010
0000
0010
0000
0010
0000
,
1000
0000
0001
0000
0001
0000
0020
0000
,
0000
0000
0001
0000
0000
0000
0000
0000
,
0030
0000
1000
0000
1000
0000
0000
0000
,
1000
0000
0010
0000
0010
0000
0010
0000
,
0001
0100
0100
0001
0010
0000
0000
0000
,
0001
0000
0000
0000
0000
0000
0000
0000
,
0001
0000
0000
0000
0000
0000
0000
0000
,
;
