#VERSION:0.83;
#TITLE:Rather be cold with you (prod. Setfu x starborn x whatswrongchase);
#SUBTITLE:;
#ARTIST:Dancing Monkeys Project;
#TITLETRANSLIT:;
#SUBTITLETRANSLIT:;
#ARTISTTRANSLIT:;
#GENRE:;
#ORIGIN:;
#CREDIT:Gorilla v1.1.3 (Dancing Monkeys v1.06);
#BANNER:mqrgZY.png;
#BACKGROUND:one_heartstation___sora_and_kairi_stained_glass_by_holleysart_deb08cj-fullview.png;
#PREVIEWVID:;
#JACKET:;
#CDIMAGE:;
#DISCIMAGE:;
#LYRICSPATH:;
#CDTITLE:;
#MUSIC:Rather be cold with you (prod. Setfu x starborn x whatswrongchase).mp3;
#OFFSET:-1.107778;
#SAMPLESTART:42.717754;
#SAMPLELENGTH:12.000000;
#SELECTABLE:YES;
#BPMS:0.000=144.196;
#STOPS:;
#DELAYS:;
#WARPS:;
#TIMESIGNATURES:0.000=4=4;
#TICKCOUNTS:0.000=4;
#COMBOS:0.000=1;
#SPEEDS:0.000=1.000=0.000=0;
#SCROLLS:0.000=1.000;
#FAKES:;
#LABELS:0.000=Song Start;
#BGCHANGES:;
#KEYSOUNDS:;
#ATTACKS:
;

//---------------dance-single - Basic----------------
#NOTEDATA:;
#CHARTNAME:Basic;
#STEPSTYPE:dance-single;
#DESCRIPTION:Basic;
#CHARTSTYLE:;
#DIFFICULTY:Easy;
#METER:5;
#RADARVALUES:0.297681,0.308105,0.095149,0.019030,0.000000,219.000000,209.000000,10.000000,2.000000,0.000000,0.000000,0.000000,0.000000,0.000000,0.297681,0.308105,0.095149,0.019030,0.000000,219.000000,209.000000,10.000000,2.000000,0.000000,0.000000,0.000000,0.000000,0.000000;
#CREDIT:Basic;
#NOTES:
0000
0000
0000
0000
,
1001
0010
0100
1000
,
0010
1000
0010
1000
,
0010
1000
0100
0010
,
0001
1000
0100
0001
,
0010
1000
0100
0010
,
0001
1000
0100
0010
,
1001
0001
0100
0001
,
0010
1000
0100
0010
,
1000
0100
0001
0010
,
1000
0100
0010
1000
,
0001
0010
0100
1000
,
0001
0100
1001
0010
,
1001
0010
0100
0010
,
1000
0001
0100
0010
,
1000
0100
0010
0010
,
0001
0010
1000
0000
,
1000
0100
0010
0100
,
0001
0100
0010
0100
,
1000
0100
0010
1000
,
0001
0100
0010
0100
,
0001
0010
0100
0010
,
1000
0100
0010
0100
,
0001
0010
0100
0010
,
1000
0010
0100
0001
,
0100
0000
0100
0000
,
1001
1000
0010
0000
,
0001
1000
0100
0000
,
0100
0001
0010
0000
,
1001
0001
0010
0000
,
1001
1000
0010
0000
,
1000
0001
0100
0000
,
0001
0001
0100
0010
,
1001
0100
0010
0001
,
1001
0100
0010
0100
,
0001
0100
0010
0100
,
1000
0010
0100
0010
,
1000
0010
0100
0010
,
0001
0010
0100
0001
,
0100
0010
0100
0010
,
1000
0100
0010
0100
,
0010
0001
0100
0000
,
0100
1000
0010
0000
,
0001
1000
0100
0000
,
1000
1000
0100
0010
,
1000
0001
0010
0100
,
1000
0001
0010
1000
,
0001
1000
0100
0010
,
0100
1000
0010
0100
,
0000
0000
0000
0000
,
0010
0000
0100
0000
,
0010
1000
0010
1000
,
0001
0010
1000
0001
,
0100
0000
0001
0010
,
1000
0000
0000
1000
,
0000
0010
1000
0010
,
0001
1000
1000
0010
,
0001
1000
0100
0001
,
1000
0000
0010
0000
2002
0000
0000
3003
;

//---------------dance-single - Basic----------------
#NOTEDATA:;
#CHARTNAME:;
#STEPSTYPE:dance-single;
#DESCRIPTION:Basic;
#CHARTSTYLE:;
#DIFFICULTY:Beginner;
#METER:5;
#RADARVALUES:0.153598,0.140048,0.000000,0.009515,0.000000,113.000000,113.000000,0.000000,1.000000,0.000000,0.000000,0.000000,0.000000,0.000000,0.153598,0.140048,0.000000,0.009515,0.000000,113.000000,113.000000,0.000000,1.000000,0.000000,0.000000,0.000000,0.000000,0.000000;
#CREDIT:;
#NOTES:
// measure 0
0000
0000
0000
0000
,  // measure 1
1000
0000
0100
0000
,  // measure 2
0010
0000
0010
0000
,  // measure 3
0010
0000
0100
0000
,  // measure 4
0001
0000
0100
0000
,  // measure 5
0010
0000
0100
0000
,  // measure 6
0001
0000
0100
0000
,  // measure 7
1000
0000
0100
0000
,  // measure 8
0010
0000
0100
0000
,  // measure 9
1000
0000
0001
0000
,  // measure 10
1000
0000
0010
0000
,  // measure 11
0001
0000
0100
0000
,  // measure 12
0001
0000
1000
0000
,  // measure 13
0001
0000
0100
0000
,  // measure 14
1000
0000
0100
0000
,  // measure 15
1000
0000
0010
0000
,  // measure 16
0001
0000
1000
0000
,  // measure 17
1000
0000
0010
0000
,  // measure 18
0001
0000
0010
0000
,  // measure 19
1000
0000
0010
0000
,  // measure 20
0001
0000
0010
0000
,  // measure 21
0001
0000
0100
0000
,  // measure 22
1000
0000
0010
0000
,  // measure 23
0001
0000
0100
0000
,  // measure 24
1000
0000
0100
0000
,  // measure 25
0100
0000
0100
0000
,  // measure 26
0001
0000
0010
0000
,  // measure 27
0001
0000
1000
0000
,  // measure 28
0100
0000
0010
0000
,  // measure 29
1000
0000
0010
0000
,  // measure 30
0001
0000
0010
0000
,  // measure 31
1000
0000
0100
0000
,  // measure 32
0001
0000
0100
0000
,  // measure 33
0001
0000
0010
0000
,  // measure 34
0001
0000
1000
0000
,  // measure 35
0001
0000
0010
0000
,  // measure 36
1000
0000
0100
0000
,  // measure 37
1000
0000
0100
0000
,  // measure 38
0001
0000
1000
0000
,  // measure 39
0001
0000
0100
0000
,  // measure 40
1000
0000
0001
0000
,  // measure 41
0010
0000
0100
0000
,  // measure 42
0001
0000
0010
0000
,  // measure 43
0001
0000
0100
0000
,  // measure 44
0010
0000
0100
0000
,  // measure 45
1000
0000
0010
0000
,  // measure 46
1000
0000
0010
0000
,  // measure 47
0001
0000
1000
0000
,  // measure 48
0001
0000
0010
0000
,  // measure 49
0000
0000
0000
0000
,  // measure 50
0010
0000
0100
0000
,  // measure 51
0100
0000
0010
0000
,  // measure 52
0001
0000
1000
0000
,  // measure 53
0100
0000
0001
0000
,  // measure 54
1000
0000
0000
1000
,  // measure 55
0000
0000
1000
0000
,  // measure 56
0001
0000
1000
0000
,  // measure 57
0001
0000
0100
0000
,  // measure 58
1000
0000
0000
0000
0002
0000
0000
0003
;
