#VERSION:0.83;
#TITLE:Rather Be Cold With You;
#SUBTITLE:;
#ARTIST:Dancing Monkeys Project;
#TITLETRANSLIT:;
#SUBTITLETRANSLIT:;
#ARTISTTRANSLIT:;
#GENRE:;
#ORIGIN:;
#CREDIT:Gorilla v1.1.3 (Dancing Monkeys v1.06);
#BANNER:94708a5a32dde44f3aaf5e4af1b502e1.png;
#BACKGROUND:__sora_kairi_aqua_roxas_xion_and_4_more_kingdom_hearts_and_1_more_drawn_by_diana_mer.png;
#PREVIEWVID:;
#JACKET:;
#CDIMAGE:;
#DISCIMAGE:;
#LYRICSPATH:;
#CDTITLE:;
#MUSIC:onlymp3.to - Rather be cold with you prod.setfu -cBrugeNfOjU-192k-1696846246.mp3;
#OFFSET:-1.156875;
#SAMPLESTART:42.765205;
#SAMPLELENGTH:12.000000;
#SELECTABLE:YES;
#BPMS:0.000=144.202;
#STOPS:;
#DELAYS:;
#WARPS:;
#TIMESIGNATURES:0.000=4=4;
#TICKCOUNTS:0.000=4;
#COMBOS:0.000=1;
#SPEEDS:0.000=1.000=0.000=0;
#SCROLLS:0.000=1.000;
#FAKES:;
#LABELS:0.000=Song Start;
#BGCHANGES:;
#KEYSOUNDS:;
#ATTACKS:
;

//---------------dance-single - Basic----------------
#NOTEDATA:;
#CHARTNAME:Basic;
#STEPSTYPE:dance-single;
#DESCRIPTION:Basic;
#CHARTSTYLE:;
#DIFFICULTY:Easy;
#METER:5;
#RADARVALUES:0.159057,0.152315,0.033911,0.000000,0.000000,197.000000,191.000000,6.000000,0.000000,0.000000,0.000000,0.000000,0.000000,0.000000,0.159057,0.152315,0.033911,0.000000,0.000000,197.000000,191.000000,6.000000,0.000000,0.000000,0.000000,0.000000,0.000000,0.000000;
#CREDIT:Basic;
#NOTES:
// measure 0
0000
0000
0000
0000
,  // measure 1
1000
0001
0100
0010
,  // measure 2
0001
1000
0010
0100
,  // measure 3
0001
1000
0010
0100
,  // measure 4
1000
0001
0100
0010
,  // measure 5
1000
0001
0010
0100
,  // measure 6
1000
0001
0010
0100
,  // measure 7
0001
1000
0100
0000
,  // measure 8
1001
0100
0010
0000
,  // measure 9
1000
0001
0100
0100
,  // measure 10
0001
1000
0100
0100
,  // measure 11
1000
0001
0010
0010
,  // measure 12
0001
1000
0010
0010
,  // measure 13
0001
1000
0100
0100
,  // measure 14
0001
1000
0100
0100
,  // measure 15
0001
1000
0010
0010
,  // measure 16
1000
0001
0010
0010
,  // measure 17
0001
1000
0010
0010
,  // measure 18
0001
1000
0010
0010
,  // measure 19
1000
0001
0010
0010
,  // measure 20
0001
1000
0010
0010
,  // measure 21
1000
0001
0100
0100
,  // measure 22
0001
1000
0010
0010
,  // measure 23
1000
0001
0010
0010
,  // measure 24
1000
0001
0100
0100
,  // measure 25
1000
0001
0100
0100
,  // measure 26
0001
1000
0010
0010
,  // measure 27
0001
1000
0010
0010
,  // measure 28
1001
1000
0010
0010
,  // measure 29
1000
0001
0100
0100
,  // measure 30
0001
1000
0010
0010
,  // measure 31
0001
1000
0010
0010
,  // measure 32
1001
1000
0010
0010
,  // measure 33
1000
0001
0100
0100
,  // measure 34
0001
1000
0010
0100
,  // measure 35
0001
1000
0100
0010
,  // measure 36
0001
0010
0001
0010
,  // measure 37
1000
0001
0100
0010
,  // measure 38
1000
0001
0100
0001
,  // measure 39
1000
0001
0010
0100
,  // measure 40
0001
1000
0100
0010
,  // measure 41
1000
0001
0010
0100
,  // measure 42
1001
1000
0010
0100
,  // measure 43
1001
0010
0100
0010
,  // measure 44
1000
0001
0100
0010
,  // measure 45
1001
1000
0010
0100
,  // measure 46
1000
0001
0100
0010
,  // measure 47
0001
1000
0010
0100
,  // measure 48
1000
0001
0100
0001
,  // measure 49
1000
0000
0000
0000
;

//---------------dance-single - Basic----------------
#NOTEDATA:;
#CHARTNAME:;
#STEPSTYPE:dance-single;
#DESCRIPTION:Basic;
#CHARTSTYLE:;
#DIFFICULTY:Beginner;
#METER:5;
#RADARVALUES:0.078317,0.069234,0.000000,0.000000,0.000000,97.000000,97.000000,0.000000,0.000000,0.000000,0.000000,0.000000,0.000000,0.000000,0.078317,0.069234,0.000000,0.000000,0.000000,97.000000,97.000000,0.000000,0.000000,0.000000,0.000000,0.000000,0.000000,0.000000;
#CREDIT:;
#NOTES:
0000
0000
0000
0000
,
1000
0000
0100
0000
,
0001
0000
0010
0000
,
0001
0000
0010
0000
,
1000
0000
0100
0000
,
1000
0000
0010
0000
,
1000
0000
0010
0000
,
0001
0000
0100
0000
,
0001
0000
0010
0000
,
1000
0000
0100
0000
,
0001
0000
0100
0000
,
1000
0000
0010
0000
,
0001
0000
0010
0000
,
0001
0000
0100
0000
,
0001
0000
0100
0000
,
0001
0000
0010
0000
,
1000
0000
0010
0000
,
0001
0000
0010
0000
,
0001
0000
0010
0000
,
1000
0000
0010
0000
,
0001
0000
0010
0000
,
1000
0000
0100
0000
,
0001
0000
0010
0000
,
1000
0000
0010
0000
,
1000
0000
0100
0000
,
1000
0000
0100
0000
,
0001
0000
0010
0000
,
0001
0000
0010
0000
,
1000
0000
0010
0000
,
1000
0000
0100
0000
,
0001
0000
0010
0000
,
0001
0000
0010
0000
,
1000
0000
0010
0000
,
1000
0000
0100
0000
,
0001
0000
0010
0000
,
0001
0000
0100
0000
,
0010
0000
0001
0000
,
1000
0000
0100
0000
,
0001
0000
0100
0000
,
1000
0000
0010
0000
,
0001
0000
0100
0000
,
1000
0000
0010
0000
,
0001
0000
0010
0000
,
1000
0000
0100
0000
,
1000
0000
0100
0000
,
0001
0000
0010
0000
,
1000
0000
0100
0000
,
0001
0000
0010
0000
,
1000
0000
0100
0000
,
1000
0000
0000
0000
;
