#VERSION:0.83;
#TITLE:QUARKS BAR;
#SUBTITLE:;
#ARTIST:Unknown;
#TITLETRANSLIT:;
#SUBTITLETRANSLIT:;
#ARTISTTRANSLIT:;
#GENRE:;
#ORIGIN:;
#CREDIT:Knox;
#BANNER:5528917d-eb34-11e7-991a-02fe9cf35e65.png;
#BACKGROUND:QwbEOH.png;
#PREVIEWVID:;
#JACKET:;
#CDIMAGE:;
#DISCIMAGE:;
#LYRICSPATH:;
#CDTITLE:;
#MUSIC:QUARKS BAR.mp3;
#OFFSET:-1.697438;
#SAMPLESTART:44.565918;
#SAMPLELENGTH:12.000000;
#SELECTABLE:YES;
#BPMS:0.000=139.963;
#STOPS:;
#DELAYS:;
#WARPS:;
#TIMESIGNATURES:0.000=4=4;
#TICKCOUNTS:0.000=4;
#COMBOS:0.000=1;
#SPEEDS:0.000=1.000=0.000=0;
#SCROLLS:0.000=1.000;
#FAKES:;
#LABELS:0.000=Song Start;
#BGCHANGES:;
#KEYSOUNDS:;
#ATTACKS:
;

//---------------dance-single - Basic----------------
#NOTEDATA:;
#CHARTNAME:Basic;
#STEPSTYPE:dance-single;
#DESCRIPTION:Basic;
#CHARTSTYLE:;
#DIFFICULTY:Easy;
#METER:3;
#RADARVALUES:0.313143,0.421024,0.267317,0.074849,0.000000,410.000000,360.000000,50.000000,14.000000,0.000000,0.000000,0.000000,0.000000,0.000000,0.313143,0.421024,0.267317,0.074849,0.000000,410.000000,360.000000,50.000000,14.000000,0.000000,0.000000,0.000000,0.000000,0.000000;
#CREDIT:Basic;
#NOTES:
0000
0000
0000
0000
,
0000
0000
0000
0000
,
0000
0000
0000
0000
,
0000
0000
0020
0000
,
0000
0000
2030
0000
,
0000
3000
0002
0000
,
0000
0000
0203
0000
,
0000
0300
1000
1000
,
1000
0010
0010
0010
,
0001
0010
0001
0001
,
1000
0100
1000
0100
,
1000
1000
0001
0001
,
1000
1000
0010
0010
,
1000
1000
0001
0001
,
0100
0100
0010
0010
,
1001
1001
0010
0010
,
1000
1000
0001
0001
,
0100
0100
0001
0001
,
1000
1000
0100
0100
,
1001
1001
0100
0100
,
0010
0100
0010
0001
,
1001
1001
0010
0100
,
1000
0100
0010
0010
,
1000
1000
1100
0100
,
0100
0010
0010
0011
,
1000
0001
1000
0001
,
1000
1000
1000
1000
,
0110
0110
0001
0001
,
1000
1000
0010
0010
,
1000
0100
0010
0001
,
0010
0100
1000
1000
,
2000
0000
0000
0000
,
3000
0020
0000
0000
,
0000
0000
0000
0000
,
0030
2000
0000
0000
,
0000
0000
0000
0000
,
3000
0002
0000
0003
,
1000
1000
0010
0010
,
1000
1000
0010
0010
,
1100
1100
0011
0011
,
0010
0010
1000
1000
,
0110
0110
1001
1001
,
0010
0010
1000
1000
,
0010
0010
1001
1001
,
0010
0010
1000
1000
,
0010
0010
1100
1100
,
0011
0011
0100
0100
,
1001
1001
0010
0100
,
1000
0100
0010
0001
,
1000
1000
0010
0010
,
0001
0001
0100
0100
,
1000
1000
0010
0010
,
0001
0001
0100
0100
,
1000
1000
0100
0100
,
0010
0010
0001
0001
,
1000
1000
0001
0001
,
1000
1000
0001
0001
,
1000
1000
0010
0010
,
0001
0001
0010
0010
,
0100
0100
0001
0001
,
1000
1000
0001
0010
,
0001
0010
1000
1000
,
0010
0010
0001
0001
,
1000
1000
0100
0100
,
0001
0001
0100
0100
,
0010
0010
0001
0001
,
0010
0010
1000
1000
,
0001
0001
1000
1000
,
0010
0010
1000
1000
,
0100
0100
0001
0001
,
2002
0000
0000
3003
,
1001
1001
0010
0010
,
0100
0100
1000
1000
,
0101
0101
1100
1100
,
1000
1000
0001
0001
,
1000
1000
0010
0010
,
0001
0001
1000
1000
,
0010
0010
0010
2002
,
0000
0000
0000
3003
,
0010
0010
1001
0100
,
0100
1001
0010
0010
,
1001
0010
0010
0100
,
1001
1001
0010
0010
,
1000
1000
0001
0001
,
0100
0100
0001
0001
,
0100
0100
0001
0001
,
0010
0010
1000
1000
,
0010
0010
1000
1000
,
0100
0100
0010
0010
,
0001
0001
1000
1000
,
0010
0010
0001
0001
,
0010
0010
1000
0100
,
1010
1000
0010
0011
,
1000
1000
0001
1001
,
1010
0010
1001
0001
,
1000
1000
0001
0001
,
1010
1000
0010
1001
,
0010
0010
0001
0100
,
1010
1000
0010
0001
,
1000
1000
0010
1001
,
0010
0010
0001
1001
,
0100
0100
0010
0010
,
0001
0001
1000
1000
,
2002
0000
0000
0000
,
0000
0000
0000
0000
,
3003
0000
0000
0000
;

//---------------dance-single - Standard----------------
#NOTEDATA:;
#CHARTNAME:Standard;
#STEPSTYPE:dance-single;
#DESCRIPTION:Standard;
#CHARTSTYLE:;
#DIFFICULTY:Medium;
#METER:5;
#RADARVALUES:0.307032,0.333611,0.417014,0.021385,0.000000,402.000000,324.000000,78.000000,4.000000,0.000000,0.000000,0.000000,0.000000,0.000000,0.307032,0.333611,0.417014,0.021385,0.000000,402.000000,324.000000,78.000000,4.000000,0.000000,0.000000,0.000000,0.000000,0.000000;
#CREDIT:Standard;
#NOTES:
0000
0000
0000
0000
0000
0000
0000
0000
,
0000
0000
0000
0000
0000
0000
0000
0000
,
0000
0000
0000
0000
0000
0000
0000
0000
,
0000
0000
0000
0000
0000
0000
0200
0000
,
0000
0000
0000
0000
0000
0000
0320
0000
,
0000
0000
0000
0000
0000
0000
0000
0000
,
0000
0000
0000
0000
0000
0000
0000
0000
,
0000
0000
0000
0000
0000
0000
0000
0000
,
0000
0000
0000
0000
0000
0000
0001
0000
,
0020
0000
0000
0000
0000
0000
0000
0000
,
0000
0000
0000
0000
0000
0000
0020
0000
,
0000
0000
0000
0000
0000
0000
0000
0000
,
0000
0000
0000
0000
0000
0000
0000
0000
,
0000
0000
0000
0000
0000
0000
0000
0000
,
0000
0000
0030
0000
0000
0000
0000
0000
,
0101
0000
1000
0000
0100
0000
1000
0000
,
1010
0000
1000
0000
0010
0000
0100
0000
,
0101
0000
1000
0000
0100
0000
1000
0000
,
1010
0000
1000
0000
0010
0000
0100
0000
,
1010
0000
1000
0000
0010
0000
0100
0000
,
0101
0000
0001
0000
0010
0000
0001
0000
,
0101
0000
1000
0000
0100
0000
1000
0000
,
1100
0000
1000
0000
0001
0000
0000
0000
,
1010
0000
1000
0000
0010
0000
0100
0000
,
0011
0000
0001
0000
0010
0000
0100
0000
,
0011
0000
0001
0000
0010
0000
0100
0000
,
0011
0000
0001
0000
0010
0000
0100
0000
,
0011
0000
0001
0000
0010
0000
0100
0000
,
0101
0000
0001
0000
0100
0000
0010
0000
,
0101
0000
0001
0000
0100
0000
0010
0000
,
1010
0000
1000
0000
0010
0000
0100
0000
,
0000
0000
0000
0000
0000
0000
0001
0000
,
1000
0000
0000
0000
0000
0000
0000
0000
,
2000
0000
0000
0000
0000
0000
0000
0000
,
0000
0000
3000
0000
0000
0000
0001
0000
,
0000
0000
0000
0000
0000
0000
0001
0000
,
1000
0000
0000
0000
0000
0000
0000
0000
,
0002
0000
0000
0000
0000
0000
0001
0000
,
0000
0000
0003
0000
0000
0000
0000
0000
,
1010
0000
1000
0000
0010
0000
0100
0000
,
0011
0000
0001
0000
0010
0000
0100
0000
,
1010
0000
1000
0000
0010
0000
0100
0000
,
0011
0000
0001
0000
0010
0000
0100
0000
,
1010
0000
1000
0000
0010
0000
0100
0000
,
0101
0000
0001
0000
0100
0000
0010
0000
,
0101
0000
0001
0000
0100
0000
0010
0000
,
1010
0000
1000
0000
0010
0000
0100
0000
,
0011
0000
0001
0000
0010
0000
0100
0000
,
0011
0000
0001
0000
0010
0000
0100
0000
,
1100
0000
1000
0000
0100
0000
0010
0000
,
1100
0000
1000
0000
0010
0000
1000
0000
,
0101
0000
0001
0000
0010
0000
0001
0000
,
1010
0000
1000
0000
0010
0000
0100
0000
,
0101
0000
0001
0000
0100
0000
0010
0000
,
1100
0000
1000
0000
0001
0000
1000
0000
,
1010
0000
1000
0000
0010
0000
0100
0000
,
1100
0000
1000
0000
0001
0000
1000
0000
,
0101
0000
0001
0000
0010
0000
0001
0000
,
0101
0000
0001
0000
0010
0000
0001
0000
,
0101
0000
1000
0000
0100
0000
1000
0000
,
0101
0000
0001
0000
0010
0000
0001
0000
,
1010
0000
1000
0000
0100
0000
1000
0000
,
1010
0000
1000
0000
0010
0000
0100
0000
,
0011
0000
0001
0000
0010
0000
0100
0000
,
0101
0000
1000
0000
0100
0000
1000
0000
,
1010
0000
1000
0000
0010
0000
0100
0000
,
0101
0000
0001
0000
0100
0000
0010
0000
,
1010
0000
1000
0000
0010
0000
0100
0000
,
0101
0000
0001
0000
0100
0000
0010
0000
,
0101
0000
1000
0000
0100
0000
1000
0000
,
1000
0000
0000
0000
0000
0000
0000
0000
,
1010
0000
1000
0000
0010
0000
0100
0000
,
1010
0000
1000
0000
0010
0000
0100
0000
,
0101
0000
1000
0000
0100
0000
1000
0000
,
1010
0000
1000
0000
0010
0000
0100
0000
,
1100
0000
1000
0000
0100
0000
0010
0000
,
0101
0000
0001
0000
0100
0000
0010
0000
,
0101
0000
0001
0000
0100
0000
0200
0000
,
0000
0000
0000
0000
0000
0000
0300
0000
,
1010
0000
1000
0000
0010
0000
0100
0000
,
0011
0000
0001
0000
0010
0000
0100
0000
,
1010
0000
1000
0000
0010
0000
0100
0000
,
0011
0000
0001
0000
0010
0000
0100
0000
,
1010
0000
1000
0000
0010
0000
0100
0000
,
0101
0000
1000
0000
0100
0000
1000
0000
,
1010
0000
1000
0000
0010
0000
0100
0000
,
1100
0000
1000
0000
0100
0000
0010
0000
,
0011
0000
0001
0000
0010
0000
0100
0000
,
1100
0000
1000
0000
0100
0000
0010
0000
,
0011
0000
0001
0000
0010
0000
0100
0000
,
0011
0000
0001
0000
0010
0000
0100
0000
,
1010
0000
1000
0000
0010
0000
0100
0000
,
0101
0000
0001
0000
0010
0000
0001
0000
,
1010
0000
1000
0000
0010
0000
0100
0000
,
0101
0000
0001
0000
0010
0000
0001
0000
,
1010
0000
1000
0000
0010
0000
0100
0000
,
0101
0000
0001
0000
0010
0000
0001
0000
,
1010
0000
1000
0000
0010
0000
0100
0000
,
0101
0000
0001
0000
0010
0000
0001
0000
,
1010
0000
1000
0000
0010
0000
0100
0000
,
0101
0000
0001
0000
0010
0000
0001
0000
,
0011
0000
0001
0000
0100
0000
0001
0000
,
0101
0000
0001
0000
0010
0000
0001
0000
,
1000
0000
0000
0000
0000
0000
0000
0000
,
0001
0000
0000
0000
0000
0000
0000
0000
,
0000
0000
0000
0000
0000
0000
0000
0000
,
0000
0000
0000
0000
0000
0000
0000
0000
,
;
