#TITLE:Technotronic - Pump Up The Jam (Radio Edit) (INSTRUMENTAL) --Space Jam;
#SUBTITLE:;
#ARTIST:Dancing Monkeys Project;
#TITLETRANSLIT:;
#SUBTITLETRANSLIT:;
#ARTISTTRANSLIT:;
#GENRE:;
#CREDIT:Gorilla v1.1.3 (Dancing Monkeys v1.06);
#BANNER:MV5BZjg2MTY4YmYtOGU5Mi00NTAzLTk2NGEtYWM4MDk4YTU1ODc3XkEyXkFqcGdeQXVyODc0OTEyNDU@._V1_.png;
#BACKGROUND:MV5BZjg2MTY4YmYtOGU5Mi00NTAzLTk2NGEtYWM4MDk4YTU1ODc3XkEyXkFqcGdeQXVyODc0OTEyNDU@._V1_ (2).png;
#LYRICSPATH:;
#CDTITLE:;
#MUSIC:Technotronic - Pump Up The Jam (Radio Edit) (INSTRUMENTAL) --Space Jam.mp3;
#OFFSET:-0.259521;
#SAMPLESTART:52.191772;
#SAMPLELENGTH:12.000000;
#SELECTABLE:YES;
#BPMS:0.000000=124.777992
;
#STOPS:
;
#BGCHANGES:;
#KEYSOUNDS:;
#ATTACKS:;

//---------------dance-single - Basic----------------
#NOTES:
     dance-single:
     Basic:
     Easy:
     5:
     0.162591,0.136925,0.000000,0.009291,0.000000,245.000000,245.000000,0.000000,2.000000,0.000000,0.000000,0.162591,0.136925,0.000000,0.009291,0.000000,245.000000,245.000000,0.000000,2.000000,0.000000,0.000000:
// measure 0
2000
0000
3000
0000
,  // measure 1
0000
0000
0000
0000
,  // measure 2
0002
0000
0000
0003
,  // measure 3
0000
0000
0000
0000
,  // measure 4
0001
0100
1000
0010
,  // measure 5
1000
0001
0010
1000
,  // measure 6
0001
0100
0010
1000
,  // measure 7
0001
0010
0001
0100
,  // measure 8
0001
0010
1000
0100
,  // measure 9
0001
0100
1000
0010
,  // measure 10
0001
0100
0010
1000
,  // measure 11
0100
0010
1000
0100
,  // measure 12
0001
0100
0010
0001
,  // measure 13
1000
0010
1000
0010
,  // measure 14
0000
0000
0000
0000
,  // measure 15
1000
0100
0010
1000
,  // measure 16
0001
0100
0010
1000
,  // measure 17
0001
1000
0001
0100
,  // measure 18
0001
0100
0010
1000
,  // measure 19
1000
0010
0001
0100
,  // measure 20
1000
0001
0010
1000
,  // measure 21
0010
1000
0100
0010
,  // measure 22
1000
0001
0010
0100
,  // measure 23
1000
0001
0100
0010
,  // measure 24
1000
0001
0100
0010
,  // measure 25
1000
1000
0010
0100
,  // measure 26
0001
1000
0100
0010
,  // measure 27
1000
1000
0100
1000
,  // measure 28
0001
1000
0010
1000
,  // measure 29
1000
0001
0100
0010
,  // measure 30
1000
0010
0001
0100
,  // measure 31
1000
0001
0010
1000
,  // measure 32
1000
0010
1000
0010
,  // measure 33
1000
0001
0100
0010
,  // measure 34
1000
0001
0100
0010
,  // measure 35
1000
1000
0100
0010
,  // measure 36
1000
0001
0010
0100
,  // measure 37
0001
0100
0010
1000
,  // measure 38
1000
0010
0100
0001
,  // measure 39
0100
0001
0100
0010
,  // measure 40
1000
1000
0100
0010
,  // measure 41
0001
0100
0010
1000
,  // measure 42
1000
0010
0100
0010
,  // measure 43
1000
0100
0010
0001
,  // measure 44
1000
0001
1000
0010
,  // measure 45
1000
0001
0100
0010
,  // measure 46
1000
1000
0010
0100
,  // measure 47
1000
1000
0100
1000
,  // measure 48
1000
0001
0100
0001
,  // measure 49
1000
0001
0100
0010
,  // measure 50
1000
1000
0100
0001
,  // measure 51
1000
0001
0100
0010
,  // measure 52
0100
1000
0100
0001
,  // measure 53
1000
1000
0010
0001
,  // measure 54
0100
0001
0100
0010
,  // measure 55
1000
0001
0010
0001
,  // measure 56
1000
0001
0010
0001
,  // measure 57
1000
0001
0010
0001
,  // measure 58
1000
0001
1000
0010
,  // measure 59
1000
0001
0010
0100
,  // measure 60
1000
0010
0100
0001
,  // measure 61
1000
0001
0100
0010
,  // measure 62
1000
1000
0010
0100
,  // measure 63
1000
0001
0100
0001
,  // measure 64
1000
0100
0010
1000
,  // measure 65
0001
0010
0100
0000
;

//---------------dance-single - Basic----------------
#NOTES:
     dance-single:
     :
     Beginner:
     5:
     0.073000,0.066778,0.000000,0.000000,0.000000,110.000000,110.000000,0.000000,0.000000,0.000000,0.000000,0.073000,0.066778,0.000000,0.000000,0.000000,110.000000,110.000000,0.000000,0.000000,0.000000,0.000000:
1000
0000
0000
0000
,
0000
0000
0000
0000
,
0001
0000
0000
0000
,
0000
0000
0000
0000
,
0001
0000
1000
0000
,
1000
0000
0010
0000
,
0001
0000
0010
0000
,
1000
0000
0010
0000
,
0001
0000
1000
0000
,
0001
0000
1000
0000
,
0001
0000
0010
0000
,
0100
0000
1000
0000
,
0001
0000
0010
0000
,
0100
0000
1000
0000
,
0010
0000
0100
0000
,
1000
0000
0010
0000
,
0001
0000
0010
0000
,
0100
0000
0010
0000
,
0001
0000
0010
0000
,
1000
0000
0001
0000
,
1000
0000
0100
0000
,
0010
0000
0100
0000
,
1000
0000
0010
0000
,
1000
0000
0100
0000
,
1000
0000
0100
0000
,
1000
0000
0010
0000
,
0001
0000
0100
0000
,
1000
0000
0100
0000
,
0001
0000
0010
0000
,
1000
0000
0100
0000
,
1000
0000
0001
0000
,
1000
0000
0010
0000
,
0001
0000
0100
0000
,
1000
0000
0100
0000
,
1000
0000
0100
0000
,
0010
0000
0001
0000
,
1000
0000
0010
0000
,
0001
0000
1000
0000
,
0001
0000
0010
0000
,
1000
0000
0100
0000
,
1000
0000
0100
0000
,
0001
0000
0010
0000
,
1000
0000
0001
0000
,
1000
0000
0010
0000
,
0001
0000
0100
0000
,
1000
0000
0010
0000
,
0100
0000
0001
0000
,
0100
0000
0010
0000
,
1000
0000
0100
0000
,
1000
0000
0100
0000
,
1000
0000
0100
0000
,
1000
0000
0001
0000
,
1000
0000
0100
0000
,
0010
0000
1000
0000
,
0010
0000
1000
0000
,
0010
0000
0100
0000
,
1000
0000
0001
0000
,
1000
0000
0010
0000
;
