#TITLE:The Proud Family Theme Song ;
#SUBTITLE:Destiny's Child;
#ARTIST:Disney;
#TITLETRANSLIT:;
#SUBTITLETRANSLIT:;
#ARTISTTRANSLIT:;
#GENRE:;
#CREDIT:Gorilla v1.1.3 (Dancing Monkeys v1.06);
#BANNER:;
#BACKGROUND:;
#LYRICSPATH:;
#CDTITLE:;
#MUSIC:The Proud Family Theme Song Disney Channel.mp3;
#OFFSET:-0.676372;
#SAMPLESTART:0.676372;
#SAMPLELENGTH:12.000000;
#SELECTABLE:YES;
#BPMS:0.000000=156.429993
;
#STOPS:
;
#BGCHANGES:;
#KEYSOUNDS:;
#ATTACKS:;

//---------------dance-single - Basic----------------
#NOTES:
     dance-single:
     Basic:
     Easy:
     2:
     0.176005,0.183265,0.000000,0.020534,0.000000,60.000000,60.000000,0.000000,1.000000,0.000000,0.000000,0.176005,0.183265,0.000000,0.020534,0.000000,60.000000,60.000000,0.000000,1.000000,0.000000,0.000000:
// measure 0
0001
0000
0100
0000
,  // measure 1
1000
0000
1000
0000
,  // measure 2
0010
0000
1000
0000
,  // measure 3
0001
0000
0100
0000
,  // measure 4
0001
0000
0100
0000
,  // measure 5
0001
0000
0100
0000
,  // measure 6
0010
0000
0001
0000
,  // measure 7
1000
0000
0100
0000
,  // measure 8
0001
0000
1000
0000
,  // measure 9
0010
0000
0100
0000
,  // measure 10
0001
0000
0010
0000
,  // measure 11
1000
0000
0001
0000
,  // measure 12
0100
0000
0001
0000
,  // measure 13
1000
0000
0010
0000
,  // measure 14
0001
0001
0001
0000
,  // measure 15
0010
0000
0100
0000
,  // measure 16
1000
0000
0010
0000
,  // measure 17
1000
0000
1000
0000
,  // measure 18
0001
0000
0100
0000
,  // measure 19
1000
0000
0010
0000
,  // measure 20
0000
0001
0001
0001
,  // measure 21
0000
1000
0000
0002
,  // measure 22
0000
0000
0003
0000
,  // measure 23
1000
0000
0010
0000
,  // measure 24
1000
0000
0001
0000
,  // measure 25
1000
0000
0001
0000
,  // measure 26
0100
0000
1000
0000
,  // measure 27
0010
0000
0100
0000
,  // measure 28
1000
0000
0001
0000
,  // measure 29
1000
0000
0000
0010
;
