#VERSION:0.83;
#TITLE:POISON;
#SUBTITLE:;
#ARTIST:Dancing Monkeys Project;
#TITLETRANSLIT:;
#SUBTITLETRANSLIT:;
#ARTISTTRANSLIT:;
#GENRE:;
#ORIGIN:;
#CREDIT:Gorilla v1.1.3 (Dancing Monkeys v1.06);
#BANNER:maxresdefault (1).png;
#BACKGROUND:maxresdefault.png;
#PREVIEWVID:;
#JACKET:;
#CDIMAGE:;
#DISCIMAGE:;
#LYRICSPATH:;
#CDTITLE:;
#MUSIC:onlymp3.to - Poison Hazbin Hotel Original Soundtrack -OkgXkkX4dwk-192k-1707064193.mp3;
#OFFSET:-0.332813;
#SAMPLESTART:40.330730;
#SAMPLELENGTH:12.000000;
#SELECTABLE:YES;
#BPMS:0.000=150.008;
#STOPS:;
#DELAYS:;
#WARPS:;
#TIMESIGNATURES:0.000=4=4;
#TICKCOUNTS:0.000=4;
#COMBOS:0.000=1;
#SPEEDS:0.000=1.000=0.000=0;
#SCROLLS:0.000=1.000;
#FAKES:;
#LABELS:0.000=Song Start;
#BGCHANGES:;
#KEYSOUNDS:;
#ATTACKS:
;

//---------------dance-single - Basic----------------
#NOTEDATA:;
#CHARTNAME:Basic;
#STEPSTYPE:dance-single;
#DESCRIPTION:Basic;
#CHARTSTYLE:;
#DIFFICULTY:Easy;
#METER:4;
#RADARVALUES:0.295141,0.356852,0.109560,0.109560,0.000000,264.000000,250.000000,14.000000,14.000000,0.000000,0.000000,0.000000,0.000000,0.000000,0.295141,0.356852,0.109560,0.109560,0.000000,264.000000,250.000000,14.000000,14.000000,0.000000,0.000000,0.000000,0.000000,0.000000;
#CREDIT:Basic;
#NOTES:
0000
0000
0000
0000
,
0000
0000
0000
0000
,
0000
0000
0000
0000
,
0000
0000
0000
0001
,
0001
0010
0001
0010
,
1000
1000
0100
1000
,
0001
1000
0001
0010
,
1000
0001
0100
0100
,
0001
0001
1000
0100
,
1000
0010
1000
0010
,
1000
0001
0100
0000
,
1000
0001
0100
0100
,
0001
0001
1000
0001
,
1000
0001
0100
0100
,
0001
0001
1000
0001
,
0100
0001
0100
0100
,
0010
0001
1000
0100
,
0010
0001
0100
0100
,
0001
0001
1000
0100
,
1001
0001
0100
0100
,
1000
0001
1000
0100
,
1001
0001
0100
0100
,
0010
0001
1001
2002
,
0000
0000
3003
0001
,
0001
0100
0010
1000
,
1001
0001
0100
0100
,
0001
1000
0001
0010
,
0100
1000
1000
0010
,
0001
0010
0100
0010
,
0001
0100
0001
0010
,
0001
0010
1000
0100
,
0010
0001
0100
0100
,
0001
0100
0010
1000
,
0100
0001
0100
0010
,
0001
1000
0010
1000
,
1001
0010
0100
1000
,
0001
0010
0100
0010
,
1001
0001
0100
0100
,
0001
0010
0100
0010
,
0100
1000
0010
2002
,
0000
0000
3003
0010
,
0100
2002
0000
0000
,
3003
0001
1000
0001
,
1000
0001
1000
0100
,
0010
0001
1000
0100
,
1000
0010
1000
0010
,
0001
0001
1000
0100
,
1000
0010
1000
0010
,
1000
0001
1000
0100
,
1001
1000
0100
1000
,
0010
0001
1000
2002
,
0000
0000
3003
0001
,
0001
0010
0100
0010
,
0001
0100
0001
0010
,
0001
0010
0100
0010
,
0100
1000
1000
0010
,
1000
1000
0001
0001
,
0001
0100
0001
0010
,
0001
1000
0001
0010
,
1001
0001
0100
2002
,
0000
0000
0000
0000
,
0000
3003
0100
0100
,
0001
0100
0010
1000
,
1001
1000
0100
1000
,
0001
0010
0100
0010
,
0100
1000
0100
1000
,
0000
1000
0001
0001
,
0100
1000
0100
0200
,
0000
0000
0000
0000
,
0000
0000
0000
0000
,
0000
0300
0001
0001
,
2000
0000
0000
0000
,
3000
0001
0001
0002
,
0000
0000
0000
1003
,
0100
0010
0100
0001
,
1000
0020
0000
0000
,
0030
0000
0000
0000
;

//---------------dance-single - Basic----------------
#NOTEDATA:;
#CHARTNAME:;
#STEPSTYPE:dance-single;
#DESCRIPTION:Basic;
#CHARTSTYLE:;
#DIFFICULTY:Beginner;
#METER:4;
#RADARVALUES:0.139745,0.148688,0.000000,0.070431,0.000000,125.000000,125.000000,0.000000,9.000000,0.000000,0.000000,0.000000,0.000000,0.000000,0.139745,0.148688,0.000000,0.070431,0.000000,125.000000,125.000000,0.000000,9.000000,0.000000,0.000000,0.000000,0.000000,0.000000;
#CREDIT:;
#NOTES:
// measure 0
0000
0000
0000
0000
,  // measure 1
0000
0000
0000
0000
,  // measure 2
0000
0000
0000
0000
,  // measure 3
0000
0000
0000
0001
,  // measure 4
0000
0010
0000
0010
,  // measure 5
0000
1000
0000
1000
,  // measure 6
0000
1000
0000
0010
,  // measure 7
0000
0001
0000
0010
,  // measure 8
0000
1000
0000
0100
,  // measure 9
0000
0001
0000
0010
,  // measure 10
0000
0100
0000
0010
,  // measure 11
0000
1000
0000
0010
,  // measure 12
0000
0001
0000
0010
,  // measure 13
0000
1000
0000
0100
,  // measure 14
0000
1000
0000
0100
,  // measure 15
0000
0001
0000
0100
,  // measure 16
0000
0001
0000
0100
,  // measure 17
0000
0001
0000
0100
,  // measure 18
0000
0001
0000
0100
,  // measure 19
0000
0001
0000
0100
,  // measure 20
0000
0001
0000
0100
,  // measure 21
0000
0001
0000
0100
,  // measure 22
0000
0001
0000
2000
,  // measure 23
0000
0000
0000
3000
,  // measure 24
0000
0100
0000
1000
,  // measure 25
0000
0001
0000
0100
,  // measure 26
0000
1000
0000
0010
,  // measure 27
0000
1000
0000
0001
,  // measure 28
0000
0100
0000
0010
,  // measure 29
0000
0100
0000
1000
,  // measure 30
0000
0010
0000
0100
,  // measure 31
0000
0001
0000
1000
,  // measure 32
0000
0100
0000
1000
,  // measure 33
0000
0001
0000
0010
,  // measure 34
0000
1000
0000
0001
,  // measure 35
0000
0010
0000
1000
,  // measure 36
0000
0001
0000
0100
,  // measure 37
0000
0001
0000
0100
,  // measure 38
0000
1000
0000
0010
,  // measure 39
0000
0100
0000
2000
,  // measure 40
0000
0000
3000
0000
,  // measure 41
0100
0002
0000
0000
,  // measure 42
0003
0000
0100
0000
,  // measure 43
1000
0000
0010
0000
,  // measure 44
0100
0000
0001
0000
,  // measure 45
1000
0000
0100
0000
,  // measure 46
0001
0000
0010
0000
,  // measure 47
0001
0000
0100
0000
,  // measure 48
0010
0000
1000
0000
,  // measure 49
0001
0000
0100
0000
,  // measure 50
0010
0010
0000
0002
,  // measure 51
0000
0000
0000
0003
,  // measure 52
0000
0010
0000
0010
,  // measure 53
0000
0001
0000
1000
,  // measure 54
0000
0100
0000
0001
,  // measure 55
0000
1000
0000
0010
,  // measure 56
0000
1000
0000
0010
,  // measure 57
0000
0100
0000
0010
,  // measure 58
0000
1000
0000
0010
,  // measure 59
0000
0100
0000
2000
,  // measure 60
0000
0000
0000
0000
,  // measure 61
0000
3000
0000
0001
,  // measure 62
0000
0100
0000
0010
,  // measure 63
0000
0100
0000
1000
,  // measure 64
0000
0001
0000
0010
,  // measure 65
0000
0100
0000
1000
,  // measure 66
0000
0010
0000
0001
,  // measure 67
0000
1000
0000
0200
,  // measure 68
0000
0000
0000
0000
,  // measure 69
0000
0000
0000
0000
,  // measure 70
0000
0000
0300
0000
,  // measure 71
2000
0000
0000
0000
,  // measure 72
0000
3000
0000
0002
,  // measure 73
0000
0000
0000
0003
,  // measure 74
0000
0010
0000
0001
,  // measure 75
0000
0020
0000
0000
,  // measure 76
0030
0000
0000
0000
;
