#VERSION:0.83;
#TITLE:Planet Tokyo;
#SUBTITLE:;
#ARTIST:PUFFY AMI YUMI;
#TITLETRANSLIT:;
#SUBTITLETRANSLIT:;
#ARTISTTRANSLIT:;
#GENRE:;
#ORIGIN:;
#CREDIT:Gorilla v1.1.3 (Dancing Monkeys v1.06);
#BANNER:amiyumianiamted.png;
#BACKGROUND:E58Su0vVEAACJuS.png;
#PREVIEWVID:;
#JACKET:;
#CDIMAGE:;
#DISCIMAGE:;
#LYRICSPATH:;
#CDTITLE:;
#MUSIC:onlymp3.to - Puffy Ami Yumi Planet Tokyo In English w Lyrics-wlAHg9BNCMg-192k-1696894369.mp3;
#OFFSET:-1.001271;
#SAMPLESTART:34.117935;
#SAMPLELENGTH:12.000000;
#SELECTABLE:YES;
#BPMS:0.000=181.178;
#STOPS:;
#DELAYS:;
#WARPS:;
#TIMESIGNATURES:0.000=4=4;
#TICKCOUNTS:0.000=4;
#COMBOS:0.000=1;
#SPEEDS:0.000=1.000=0.000=0;
#SCROLLS:0.000=1.000;
#FAKES:;
#LABELS:0.000=Song Start;
#BGCHANGES:;
#KEYSOUNDS:;
#ATTACKS:
;

//---------------dance-single - Basic----------------
#NOTEDATA:;
#CHARTNAME:Basic;
#STEPSTYPE:dance-single;
#DESCRIPTION:Basic;
#CHARTSTYLE:;
#DIFFICULTY:Easy;
#METER:5;
#RADARVALUES:0.169939,0.155239,0.000000,0.019033,0.000000,125.000000,125.000000,0.000000,2.000000,0.000000,0.000000,0.000000,0.000000,0.000000,0.169939,0.155239,0.000000,0.019033,0.000000,125.000000,125.000000,0.000000,2.000000,0.000000,0.000000,0.000000,0.000000,0.000000;
#CREDIT:Basic;
#NOTES:
// measure 0
1000
0000
0010
0000
,  // measure 1
1000
0000
0010
0000
,  // measure 2
0001
0000
0010
0000
,  // measure 3
0001
0000
0100
0000
,  // measure 4
1000
0000
0010
0000
,  // measure 5
0001
0000
0100
0000
,  // measure 6
1000
1000
0000
0010
,  // measure 7
0000
1000
0000
0100
,  // measure 8
0000
0001
0000
0010
,  // measure 9
0000
1000
0000
0100
,  // measure 10
0000
0010
0000
0100
,  // measure 11
0000
0001
0000
0100
,  // measure 12
0000
1000
0000
0010
,  // measure 13
0000
1000
0000
0100
,  // measure 14
0000
0010
0000
1000
,  // measure 15
0000
0001
0000
0100
,  // measure 16
0000
0001
0000
0100
,  // measure 17
0000
1000
0000
0100
,  // measure 18
0000
0010
0000
1000
,  // measure 19
0000
0001
0000
0100
,  // measure 20
0000
1000
0000
0100
,  // measure 21
0000
1000
0000
0010
,  // measure 22
0000
0100
0000
0001
,  // measure 23
0000
1000
0000
0100
,  // measure 24
0000
1000
0000
1000
,  // measure 25
0000
0010
0000
0001
,  // measure 26
0000
1000
0000
0100
,  // measure 27
0000
1000
0000
0010
,  // measure 28
0000
1000
0000
0100
,  // measure 29
0000
0010
0000
0100
,  // measure 30
0000
0010
0000
0100
,  // measure 31
0000
1000
0000
0010
,  // measure 32
0000
0100
0000
0001
,  // measure 33
0000
1000
0000
0010
,  // measure 34
0000
0100
0000
0010
,  // measure 35
0000
0001
0000
0100
,  // measure 36
0000
0001
0000
0010
,  // measure 37
0000
0001
0000
1000
,  // measure 38
0000
0100
0000
0010
,  // measure 39
0000
0010
0000
0100
,  // measure 40
0000
0001
0000
0010
,  // measure 41
0000
1000
0000
0100
,  // measure 42
0000
0010
0000
0001
,  // measure 43
0000
0100
0000
0010
,  // measure 44
0000
1000
0000
0100
,  // measure 45
0000
0010
0000
0100
,  // measure 46
0000
0001
0000
0100
,  // measure 47
0000
0010
0000
1000
,  // measure 48
0000
0100
0000
0010
,  // measure 49
0000
0001
0000
0100
,  // measure 50
0000
1000
0000
0010
,  // measure 51
0000
1000
0000
0001
,  // measure 52
0000
0100
0000
0010
,  // measure 53
0000
0001
0000
0100
,  // measure 54
0000
0001
0000
0100
,  // measure 55
0000
1000
0000
0010
,  // measure 56
0000
0100
0000
0010
,  // measure 57
0000
1000
0000
0200
,  // measure 58
0000
0000
0000
0000
,  // measure 59
0000
0000
0000
0300
,  // measure 60
0000
1000
0000
0010
,  // measure 61
0000
0001
0100
0000
,  // measure 62
0002
0000
0000
0000
,  // measure 63
0000
0000
0000
0000
,  // measure 64
0003
1000
0000
0100
,  // measure 65
0000
0010
0000
0000
;
