#VERSION:0.83;
#TITLE:onlymp3.to - Pibby You ll Make The Change Pibby VIP Remix -y26aytjZS6c-192k-1696866770;
#SUBTITLE:;
#ARTIST:Dancing Monkeys Project;
#TITLETRANSLIT:;
#SUBTITLETRANSLIT:;
#ARTISTTRANSLIT:;
#GENRE:;
#ORIGIN:;
#CREDIT:Gorilla v1.1.3 (Dancing Monkeys v1.06);
#BANNER:images.png;
#BACKGROUND:df09h3r-8f14259c-4e62-40cf-a983-85c6ff55769c.png;
#PREVIEWVID:;
#JACKET:;
#CDIMAGE:;
#DISCIMAGE:;
#LYRICSPATH:;
#CDTITLE:;
#MUSIC:onlymp3.to - Pibby You ll Make The Change Pibby VIP Remix -y26aytjZS6c-192k-1696866770.mp3;
#OFFSET:-0.465771;
#SAMPLESTART:42.426186;
#SAMPLELENGTH:12.000000;
#SELECTABLE:YES;
#BPMS:0.000=142.992;
#STOPS:;
#DELAYS:;
#WARPS:;
#TIMESIGNATURES:0.000=4=4;
#TICKCOUNTS:0.000=4;
#COMBOS:0.000=1;
#SPEEDS:0.000=2.300=0.000=0;
#SCROLLS:0.000=1.000;
#FAKES:;
#LABELS:0.000=Song Start;
#BGCHANGES:;
#KEYSOUNDS:;
#ATTACKS:
;

//---------------dance-single - Basic----------------
#NOTEDATA:;
#CHARTNAME:Basic;
#STEPSTYPE:dance-single;
#DESCRIPTION:Basic;
#CHARTSTYLE:;
#DIFFICULTY:Easy;
#METER:6;
#RADARVALUES:0.314887,0.353123,0.029989,0.059978,0.000000,441.000000,435.000000,6.000000,12.000000,0.000000,0.000000,0.000000,0.000000,0.000000,0.314887,0.353123,0.029989,0.059978,0.000000,441.000000,435.000000,6.000000,12.000000,0.000000,0.000000,0.000000,0.000000,0.000000;
#CREDIT:Basic;
#NOTES:
// measure 0
2000
0000
3000
0002
,  // measure 1
0000
0000
0003
2000
,  // measure 2
0000
0000
3000
0002
,  // measure 3
0000
0000
0003
2000
,  // measure 4
0000
0000
3000
0002
,  // measure 5
0000
0000
0003
2000
,  // measure 6
0000
0000
3000
0002
,  // measure 7
0000
0000
0003
2000
,  // measure 8
0000
0000
3000
0002
,  // measure 9
0000
0000
0003
2000
,  // measure 10
0000
0000
3000
0002
,  // measure 11
0000
0000
0003
1000
,  // measure 12
0100
0001
1000
0010
,  // measure 13
0100
0001
0010
0100
,  // measure 14
0001
1000
0100
0010
,  // measure 15
0001
1000
0100
0010
,  // measure 16
1000
0100
0001
0100
,  // measure 17
0001
1000
0100
0010
,  // measure 18
0001
1000
0010
0100
,  // measure 19
1000
0001
0010
0100
,  // measure 20
0001
1000
0100
0010
,  // measure 21
0001
0001
0100
0010
,  // measure 22
0001
1000
0010
0100
,  // measure 23
0001
0001
0100
1000
,  // measure 24
0001
0100
0010
0001
,  // measure 25
1000
0100
0010
0100
,  // measure 26
0001
0010
1000
0100
,  // measure 27
0001
1000
0010
0100
,  // measure 28
0001
1000
0100
0010
,  // measure 29
1000
0010
1000
0100
,  // measure 30
0001
1000
0100
0001
,  // measure 31
1000
0010
1000
0100
,  // measure 32
0001
0100
1000
0001
,  // measure 33
0001
1000
1000
0010
,  // measure 34
1000
1000
0100
0010
,  // measure 35
0001
1000
1000
0010
,  // measure 36
0001
1000
1000
0010
,  // measure 37
1000
1000
0100
0010
,  // measure 38
0001
0001
0010
0100
,  // measure 39
0001
1000
1000
0010
,  // measure 40
0001
0100
1000
0100
,  // measure 41
0001
0100
1000
0010
,  // measure 42
0001
0100
0001
1000
,  // measure 43
0010
0001
1000
0010
,  // measure 44
1000
0100
0010
1000
,  // measure 45
0001
0100
0010
0100
,  // measure 46
1000
0001
1000
0100
,  // measure 47
0001
1000
0001
0100
,  // measure 48
1000
0100
0010
0001
,  // measure 49
1000
0010
0100
0001
,  // measure 50
1000
0100
0001
0100
,  // measure 51
0001
1000
0100
0010
,  // measure 52
1000
0010
0001
0100
,  // measure 53
1000
0001
1000
0100
,  // measure 54
1000
0001
1000
0100
,  // measure 55
1000
0001
0001
0100
,  // measure 56
1000
0001
0001
0010
,  // measure 57
0001
0010
1000
0100
,  // measure 58
1000
0001
0100
0010
,  // measure 59
0001
1000
0100
0001
,  // measure 60
1000
0001
1000
0100
,  // measure 61
0001
1000
1000
0010
,  // measure 62
0001
1000
0010
0100
,  // measure 63
0001
1000
0010
0100
,  // measure 64
1000
0001
0100
0010
,  // measure 65
1000
0001
0100
0010
,  // measure 66
0100
1000
0010
0100
,  // measure 67
1000
0001
0100
0001
,  // measure 68
1000
0010
0100
0010
,  // measure 69
0001
1000
0100
0010
,  // measure 70
1000
0001
0010
1000
,  // measure 71
0001
0010
1000
0000
,  // measure 72
0000
0001
1000
0010
,  // measure 73
0100
1000
0001
0010
,  // measure 74
0100
0001
0010
1000
,  // measure 75
0100
0001
0010
1000
,  // measure 76
0001
0100
1000
0001
,  // measure 77
1000
0010
0100
0010
,  // measure 78
0001
1000
0010
0010
,  // measure 79
1000
1000
0010
0100
,  // measure 80
1000
1000
0100
0100
,  // measure 81
0001
0001
0010
0010
,  // measure 82
1000
1000
0010
0010
,  // measure 83
1000
0010
0010
0100
,  // measure 84
0100
1000
0001
0100
,  // measure 85
1000
1000
0010
1000
,  // measure 86
0001
0010
0010
1000
,  // measure 87
1000
0100
0001
0010
,  // measure 88
1000
0010
0100
0010
,  // measure 89
0001
1000
1000
0001
,  // measure 90
0001
0010
0100
0001
,  // measure 91
0010
1000
0010
1000
,  // measure 92
0001
0010
0100
0001
,  // measure 93
1000
0100
0001
0010
,  // measure 94
1000
0010
0100
0100
,  // measure 95
0001
0010
1001
0010
,  // measure 96
1001
0100
1001
0010
,  // measure 97
1000
0100
0001
0010
,  // measure 98
1000
0001
0100
0010
,  // measure 99
0001
1000
0100
0010
,  // measure 100
0001
0100
1000
0010
,  // measure 101
1000
0100
0010
1000
,  // measure 102
0001
1000
0100
0010
,  // measure 103
1000
0001
1000
0100
,  // measure 104
0001
0010
1001
0010
,  // measure 105
0001
1000
1010
0100
,  // measure 106
1000
0001
0100
0010
,  // measure 107
1000
0001
0001
0100
,  // measure 108
1000
0001
0001
0010
,  // measure 109
1000
0100
0010
0001
,  // measure 110
0100
0010
1001
0010
,  // measure 111
1000
0010
0001
0100
,  // measure 112
1000
0010
0001
1000
,  // measure 113
0001
0100
0010
0001
,  // measure 114
0010
0100
0010
0001
,  // measure 115
1000
0100
0001
0010
,  // measure 116
0100
1000
0010
0100
,  // measure 117
0001
0010
0100
1000
;

//---------------dance-single - Standard----------------
#NOTEDATA:;
#CHARTNAME:Standard;
#STEPSTYPE:dance-single;
#DESCRIPTION:Standard;
#CHARTSTYLE:;
#DIFFICULTY:Medium;
#METER:7;
#RADARVALUES:0.423419,0.487512,0.049982,0.004998,0.000000,593.000000,583.000000,10.000000,1.000000,0.000000,0.000000,0.000000,0.000000,0.000000,0.423419,0.487512,0.049982,0.004998,0.000000,593.000000,583.000000,10.000000,1.000000,0.000000,0.000000,0.000000,0.000000,0.000000;
#CREDIT:Standard;
#NOTES:
0000
0000
0000
0000
0000
0000
0001
0000
,
0000
0000
0000
0000
0000
0000
1000
0000
,
0000
0000
0000
0000
0000
0000
1000
0000
,
0000
0000
0000
0000
0000
0000
1000
0000
,
0000
0000
0000
0000
0000
0000
1000
0000
,
0000
0000
0000
0000
0000
0000
0001
0000
,
0000
0000
0000
0000
0000
0000
1000
0000
,
0000
0000
0000
0000
0000
0000
1000
0000
,
0000
0000
0000
0000
0000
0000
1000
0000
,
0000
0000
0000
0000
0000
0000
0001
0000
,
0000
0000
0000
0000
0000
0000
1000
0000
,
0000
0000
0000
0000
0000
0000
2000
0000
,
1000
0000
0010
0000
0100
0000
0000
0000
,
0001
0000
0010
0000
0100
0000
0000
0000
,
0001
0000
0100
0000
0001
0000
0100
0000
,
0001
0000
0100
0000
1000
0000
3000
0010
,
0001
0000
0100
0000
0100
0010
0100
0000
,
0001
0100
0100
0000
0001
0000
0100
0010
,
0001
0010
0010
0000
0100
1000
0100
0010
,
0001
0100
0100
0000
0010
1000
0010
0100
,
0001
0100
0100
0000
0001
0000
0100
0010
,
0001
0100
0100
0000
0001
0000
0100
0010
,
0001
0010
0010
0000
0100
1000
0100
0010
,
1000
0010
0010
0000
0000
0000
1000
0001
,
1000
0001
1000
0000
1000
0010
0100
0010
,
0001
0010
0010
0000
0100
1000
0100
0010
,
0000
0001
0010
0010
0100
0010
0100
0100
,
0001
0010
0010
0000
0100
1000
0100
0010
,
0001
0100
0100
0000
0001
0000
0100
0010
,
0000
0001
0010
0010
0100
0010
0100
0100
,
0000
0000
1000
0010
0100
0100
0010
0100
,
0000
0001
0010
0010
0100
0010
0100
0100
,
0001
0010
0001
0001
1000
0000
0100
0001
,
0001
0000
0100
0010
1000
0001
1000
0010
,
0001
0100
0100
0000
0001
0000
0100
0010
,
0001
0000
0100
0010
1000
0001
1000
0010
,
1000
0000
0010
0100
0001
1000
0001
0100
,
0001
0100
0100
0000
0001
0000
0100
0010
,
1000
0010
0010
0000
1000
0000
0010
0100
,
0001
0000
0100
0010
1000
0001
1000
0010
,
0001
0010
0001
0001
1000
0000
0100
0001
,
1000
0010
1000
0100
1000
0000
0001
0010
,
0001
0010
0000
0000
0000
0000
0100
1000
,
0000
0000
0000
0000
0000
0000
1000
0010
,
1000
0100
0010
0001
0000
0010
0000
1000
,
1000
0100
0010
0001
0000
0000
0000
0000
,
0001
0000
0100
0000
0100
0010
0100
0000
,
0001
0000
0010
0000
0010
0100
0010
0000
,
1000
0100
0010
0001
0000
0010
0000
1000
,
0001
0100
0010
0000
0000
1000
0000
0010
,
0001
0000
0100
0000
0100
0010
0100
0000
,
1000
0000
0001
0000
1000
1000
0100
0010
,
0001
0100
0010
0000
0000
1000
0000
0010
,
0001
0000
0100
0000
0100
0010
0100
0000
,
0001
0000
0100
0000
0100
0010
0100
0000
,
0001
0000
0100
0000
0100
0010
0100
0000
,
0001
0000
0100
0000
0100
0010
0100
0000
,
0001
0000
0010
0000
0010
0100
0010
0000
,
1000
0000
0010
1000
0100
0000
0000
0000
,
0001
0010
0000
0000
0000
0000
0100
1000
,
0001
0000
0100
0000
0100
0010
0100
0000
,
0001
0000
0010
0000
0010
0100
0010
0000
,
0001
0010
0010
0000
0100
1000
0100
0010
,
1000
0100
0100
0000
0010
0001
0010
0100
,
0001
0100
0100
0000
0001
0000
0100
0010
,
0001
0100
0100
0000
0001
0000
0100
0010
,
0001
0010
0010
0000
0100
1000
0100
0010
,
0001
0100
0100
0000
0001
0000
0100
0010
,
0001
0000
1001
0000
0010
1000
0010
0100
,
0001
0000
0011
0000
1000
0001
0100
1000
,
1000
0000
0101
0000
1000
0001
0000
1000
,
1000
0001
0010
0100
0002
0000
1000
0000
,
0000
0000
0000
0000
0000
0000
1003
0010
,
0000
0000
0000
0000
0000
0000
1000
0010
,
0000
0000
0000
0000
0000
0000
1000
0010
,
0000
0000
0000
0000
0000
0000
1000
0010
,
0001
0010
0000
0000
0000
0000
0100
1000
,
1000
0100
0010
0001
0010
0001
0010
0100
,
0001
0100
0001
0100
0001
0010
0100
1000
,
0001
0100
0001
0100
0001
0010
0100
1000
,
0001
0100
0001
0100
0001
0010
0100
1000
,
0001
0100
0001
0100
0001
0010
0100
1000
,
0001
0100
0001
0100
0001
0010
0100
1000
,
0001
0100
0010
0100
0010
1000
0100
0010
,
0001
0000
0100
0000
0100
0010
0100
0000
,
0001
0100
0001
1000
0100
0000
1100
0000
,
0001
0010
0001
1000
0001
0000
0010
1000
,
0001
1000
0001
0100
0010
0100
0010
0000
,
1001
0000
0100
0001
0100
0001
1000
1000
,
0001
0100
0010
0000
0000
1000
0000
0010
,
0001
1000
0010
0000
0011
0000
0010
0100
,
0001
0100
0001
1000
0100
0000
1100
0000
,
0001
0010
0001
1000
0001
0000
0010
1000
,
0001
1000
0001
0100
0010
0100
0010
0000
,
1001
0000
0100
0001
0100
0001
1000
1000
,
0000
1000
0010
0000
1100
0000
0100
0001
,
0001
1000
0010
0000
0011
0000
0010
0100
,
1000
0100
1000
0000
0000
0000
0001
0000
,
1000
0000
0010
1000
0100
0000
0000
0000
,
1000
0000
0010
1000
0100
0000
0000
0000
,
0000
0000
0000
0000
0001
0100
0000
1000
,
1000
0100
0010
0001
0000
0010
0000
1000
,
0001
0100
0010
0000
0000
1000
0000
0010
,
0001
0000
0100
0000
0100
0010
0100
0000
,
1000
0000
0100
0000
0100
0010
0100
0000
,
0001
0100
0010
0000
0000
1000
0000
0010
,
1000
0000
0010
1000
0100
0000
0000
0000
,
0001
0000
0100
0000
0100
0010
0100
0000
,
0001
0000
0100
0000
0100
0010
0100
0000
,
1000
0100
0010
0001
0000
0010
0000
1000
,
0001
0100
0010
0000
0000
1000
0000
0010
,
0001
0000
0100
0000
0100
0010
0100
0000
,
1000
0000
0010
0000
0010
0100
0010
0000
,
1000
0100
0010
0001
0000
0000
0000
0000
,
0000
0000
0000
0000
0000
0000
0001
0000
,
;

//---------------dance-single - Heavy----------------
#NOTEDATA:;
#CHARTNAME:Heavy;
#STEPSTYPE:dance-single;
#DESCRIPTION:Heavy;
#CHARTSTYLE:;
#DIFFICULTY:Hard;
#METER:8;
#RADARVALUES:0.490538,0.487512,0.074973,0.004998,0.000000,687.000000,672.000000,15.000000,1.000000,0.000000,0.000000,0.000000,0.000000,0.000000,0.490538,0.487512,0.074973,0.004998,0.000000,687.000000,672.000000,15.000000,1.000000,0.000000,0.000000,0.000000,0.000000,0.000000;
#CREDIT:Heavy;
#NOTES:
0000
0000
0000
0000
0000
0000
1000
0000
,
0000
0000
0000
0000
0000
0000
1000
0000
,
0000
0000
0000
0000
0000
0000
0001
0000
,
0000
0000
0000
0000
0000
0000
1000
0000
,
0000
0000
0000
0000
0000
0000
1000
0000
,
0000
0000
0000
0000
0000
0000
1000
0000
,
0000
0000
0000
0000
0000
0000
0001
0000
,
0000
0000
0000
0000
0000
0000
0001
0000
,
0000
0000
0000
0000
0000
0000
1000
0000
,
0000
0000
0000
0000
0000
0000
0001
0000
,
0000
0000
0000
0000
0000
0000
1000
0000
,
0000
0000
0000
0000
0000
0000
0002
0000
,
1000
0000
0010
0000
0010
0000
0000
0000
,
1000
0000
0010
0000
0010
0000
0000
0000
,
0001
0000
0010
0000
0100
0000
0100
0000
,
1000
0000
0010
0000
0010
0000
0013
0100
,
0001
0010
0001
0000
0001
0100
0010
1000
,
0001
0010
0010
0000
0100
1000
0100
1000
,
0000
0001
0001
0010
0100
0010
0001
0010
,
0000
0001
0001
0100
0010
0100
0001
0100
,
0001
0010
0010
0000
0100
1000
0100
1000
,
1000
0100
0100
0000
0010
0001
0010
0001
,
0000
0001
0001
0010
0100
0010
0001
0010
,
1000
0001
0001
0010
0000
0001
0010
0001
,
1000
0001
1000
0100
0100
1000
0100
0010
,
0000
0001
0001
0010
0100
0010
0001
0010
,
0000
0001
0010
0010
0001
1000
0001
0001
,
0000
0001
0001
0010
0100
0010
0001
0010
,
0001
0010
0010
0000
0100
1000
0100
1000
,
0000
0001
0010
0010
0001
1000
0001
0001
,
0001
0010
0100
1000
0010
0010
1000
0100
,
0000
0001
0010
0010
0001
1000
0001
0001
,
1000
0001
0010
0010
0001
0000
1000
0100
,
1000
0100
0010
0100
0010
1000
0010
0100
,
0001
0010
0010
0000
0100
1000
0100
1000
,
1000
0100
0010
0100
0010
1000
0010
0100
,
0001
0100
0010
0100
0010
0001
0010
0100
,
0001
0010
0010
0000
0100
1000
0100
1000
,
1000
0100
0100
0000
0010
0001
0010
0001
,
1000
0100
0010
0100
0010
1000
0010
0100
,
1000
0001
0010
0010
0001
0000
1000
0100
,
1000
0100
1000
0100
1000
0000
0010
1000
,
1000
0001
0000
0000
0100
0000
0001
0010
,
0000
0000
1000
0000
1000
0000
0100
1000
,
1000
0001
0010
0001
1000
0100
0010
1000
,
1000
0010
1000
0100
0010
0000
0000
0001
,
0001
0010
0001
0000
0001
0100
0010
1000
,
0001
0100
0001
0000
0001
0010
0100
1000
,
1000
0001
0010
0001
1000
0100
0010
1000
,
1000
0100
0010
0001
0000
0010
0001
1000
,
0001
0010
0001
0000
0001
0100
0010
1000
,
1000
0001
0100
0001
1000
1000
0010
0100
,
1000
0100
0010
0001
0000
0010
0001
1000
,
0001
0010
0001
0000
0001
0100
0010
1000
,
1000
0010
1000
0000
1000
0100
0010
0001
,
1000
0010
1000
0000
1000
0100
0010
0001
,
0001
0100
0001
0000
0001
0010
0100
1000
,
0001
0010
0001
0000
0001
0100
0010
1000
,
1000
0001
0010
0100
0010
0000
0000
0001
,
1000
0001
0000
0000
0100
0000
0001
0010
,
0001
0010
0001
0000
0001
0100
0010
1000
,
0001
0100
0001
0000
0001
0010
0100
1000
,
0000
0001
0001
0010
0100
0010
0001
0010
,
0000
1000
1000
0100
0010
0100
1000
0100
,
0001
0010
0010
0000
0100
1000
0100
1000
,
0001
0100
0100
0000
0010
1000
0010
1000
,
0000
0001
0001
0010
0100
0010
0001
0010
,
0001
0010
0010
0000
0100
1000
0100
1000
,
0000
0000
1100
0000
1000
0001
0000
1000
,
0001
0000
1100
0000
0100
0001
0010
0001
,
0001
0000
1010
0000
1000
0100
1000
0100
,
1000
0100
0010
0100
0002
0000
0000
0000
,
0000
0000
1000
0000
1000
0000
0103
1000
,
0000
0000
1000
0000
1000
0000
0100
1000
,
0000
0000
0001
0000
0001
0000
0100
0001
,
0000
0000
1000
0000
1000
0000
0100
1000
,
1000
0001
0000
0000
0100
0000
0001
0000
,
0101
0000
0001
0100
0001
0100
0010
0100
,
0001
0100
0001
0010
0100
1000
0100
0010
,
0001
0010
0001
0100
0010
1000
0010
0100
,
1000
0010
1000
0100
0010
0001
0010
0100
,
1000
0010
1000
0100
0010
0001
0010
0100
,
0001
0010
0001
0100
0010
1000
0010
0100
,
0001
0100
0010
1000
0100
1000
0010
1000
,
0001
0010
0001
0000
0001
0100
0010
0000
,
0011
0000
0001
0010
0000
0000
1001
0000
,
0001
0010
0100
0000
1001
0000
0100
1000
,
0001
0010
0001
1000
0010
0100
0000
0000
,
1100
0000
0001
0010
0001
0000
0010
0010
,
1000
0100
0010
0001
0000
0010
0001
1000
,
0001
0010
0001
0000
0101
0000
0000
0000
,
0011
0000
0001
0010
0000
0000
1001
0000
,
0001
0010
0100
0000
1001
0000
0100
1000
,
0001
0010
0001
1000
0010
0100
0000
0000
,
1100
0000
0001
0010
0001
0000
0010
0010
,
0001
0100
0001
0000
1010
0000
1000
0010
,
0001
0010
0001
0000
0101
0000
0000
0001
,
0001
0010
0100
0000
0001
0100
0010
0000
,
1000
0001
0010
0100
0010
0000
0000
0001
,
0001
1000
0100
0010
0100
0000
0000
1000
,
0000
0000
1000
0000
0001
0010
0000
0001
,
1000
0001
0010
0001
1000
0100
0010
1000
,
1000
0100
0010
0001
0000
0010
0001
1000
,
0001
0010
0001
0000
0001
0100
0010
1000
,
1000
0010
1000
0000
1000
0100
0010
0001
,
1000
0100
0010
0001
0000
0010
0001
1000
,
1000
0001
0010
0100
0010
0000
0000
0001
,
0001
0010
0001
0000
0001
0100
0010
1000
,
0001
0100
0001
0000
0001
0010
0100
1000
,
1000
0001
0010
0001
1000
0100
0010
1000
,
1000
0100
0010
0001
0000
0010
0001
1000
,
0001
0010
0001
0000
0001
0100
0010
1000
,
0001
0010
0001
0000
0001
0100
0010
1000
,
1000
0010
1000
0100
0010
0000
0000
0001
,
0000
0000
0000
0000
0000
0000
1000
0000
,
;
