#VERSION:0.83;
#TITLE:onlymp3.to - Pibby You ll Make The Change Pibby VIP Remix -y26aytjZS6c-192k-1696866770;
#SUBTITLE:;
#ARTIST:Dancing Monkeys Project;
#TITLETRANSLIT:;
#SUBTITLETRANSLIT:;
#ARTISTTRANSLIT:;
#GENRE:;
#ORIGIN:;
#CREDIT:Gorilla v1.1.3 (Dancing Monkeys v1.06);
#BANNER:artworks-bdIFHSxqnX8Bczp1-CKWhBg-t500x500.png;
#BACKGROUND:maxresdefault.png;
#PREVIEWVID:;
#JACKET:;
#CDIMAGE:;
#DISCIMAGE:;
#LYRICSPATH:;
#CDTITLE:;
#MUSIC:onlymp3.to - Pibby You ll Make The Change Pibby VIP Remix -y26aytjZS6c-192k-1696866770.mp3;
#OFFSET:-0.705917;
#SAMPLESTART:42.651752;
#SAMPLELENGTH:12.000000;
#SELECTABLE:YES;
#BPMS:0.000=143.042;
#STOPS:;
#DELAYS:;
#WARPS:;
#TIMESIGNATURES:0.000=4=4;
#TICKCOUNTS:0.000=4;
#COMBOS:0.000=1;
#SPEEDS:0.000=2.000=0.000=0;
#SCROLLS:0.000=1.000;
#FAKES:;
#LABELS:0.000=Song Start;
#BGCHANGES:;
#KEYSOUNDS:;
#ATTACKS:
;

//---------------dance-single - Basic----------------
#NOTEDATA:;
#CHARTNAME:Basic;
#STEPSTYPE:dance-single;
#DESCRIPTION:Basic;
#CHARTSTYLE:;
#DIFFICULTY:Easy;
#METER:6;
#RADARVALUES:0.299092,0.345451,0.095166,0.028550,0.000000,220.000000,210.000000,10.000000,3.000000,0.000000,0.000000,0.000000,0.000000,0.000000,0.299092,0.345451,0.095166,0.028550,0.000000,220.000000,210.000000,10.000000,3.000000,0.000000,0.000000,0.000000,0.000000,0.000000;
#CREDIT:Basic;
#NOTES:
// measure 0
0000
0000
2000
0000
,  // measure 1
0000
0000
0000
0000
,  // measure 2
0000
0000
0000
0000
,  // measure 3
0000
0000
0000
0000
,  // measure 4
0000
0000
0000
0000
,  // measure 5
0000
0000
0000
0000
,  // measure 6
0000
0000
3000
0020
,  // measure 7
0000
0000
0000
0030
,  // measure 8
1000
0010
1000
0100
,  // measure 9
1000
0100
0001
0100
,  // measure 10
0001
0010
1000
0010
,  // measure 11
1000
0010
1000
0010
,  // measure 12
0001
0100
0001
1000
,  // measure 13
0001
1000
0001
0010
,  // measure 14
0100
0001
1000
0010
,  // measure 15
0100
0100
1000
0010
,  // measure 16
1000
0001
1000
0010
,  // measure 17
1001
1000
0100
0010
,  // measure 18
0100
1000
0001
0010
,  // measure 19
1000
0001
0100
0010
,  // measure 20
0001
0100
1000
0010
,  // measure 21
1000
0100
0010
1000
,  // measure 22
0100
0001
0100
0001
,  // measure 23
2000
3000
0001
1000
,  // measure 24
0100
1000
0001
1000
,  // measure 25
0010
1000
0100
0010
,  // measure 26
1000
0010
1000
0010
,  // measure 27
0001
0100
0001
1000
,  // measure 28
0001
1000
0100
0001
,  // measure 29
1000
0010
0001
1000
,  // measure 30
1000
0001
0100
0010
,  // measure 31
1000
0001
0100
0001
,  // measure 32
0100
0010
0100
0001
,  // measure 33
0100
0001
0100
1000
,  // measure 34
0100
0001
1000
0010
,  // measure 35
1001
0010
0100
1000
,  // measure 36
0100
0010
0100
0001
,  // measure 37
1000
0001
0100
1001
,  // measure 38
1000
0010
0100
1000
,  // measure 39
0010
1000
0010
0100
,  // measure 40
1000
0001
1000
0010
,  // measure 41
1001
0100
0001
0100
,  // measure 42
1000
0010
0001
1000
,  // measure 43
0010
1000
1000
0010
,  // measure 44
1000
0010
0001
0010
,  // measure 45
1000
0100
0100
0010
,  // measure 46
0001
0100
0010
1000
,  // measure 47
0100
0001
1000
0010
,  // measure 48
1000
0010
0001
0010
,  // measure 49
1000
0100
0100
0010
,  // measure 50
0001
0000
0010
0100
,  // measure 51
1000
0010
0100
0001
,  // measure 52
1000
0010
0001
0010
,  // measure 53
0001
0100
1000
0010
,  // measure 54
1000
0010
0100
0010
,  // measure 55
0100
0001
1000
0100
,  // measure 56
1001
0010
0100
0010
,  // measure 57
1001
0010
0100
0010
,  // measure 58
1001
0100
1000
0010
,  // measure 59
1001
0010
0010
1000
,  // measure 60
1001
0000
1001
0000
;

//---------------dance-single - Standard----------------
#NOTEDATA:;
#CHARTNAME:Standard;
#STEPSTYPE:dance-single;
#DESCRIPTION:Standard;
#CHARTSTYLE:;
#DIFFICULTY:Medium;
#METER:7;
#RADARVALUES:0.417369,0.460601,0.171298,0.000000,0.000000,307.000000,289.000000,18.000000,0.000000,0.000000,0.000000,0.000000,0.000000,0.000000,0.417369,0.460601,0.171298,0.000000,0.000000,307.000000,289.000000,18.000000,0.000000,0.000000,0.000000,0.000000,0.000000,0.000000;
#CREDIT:Standard;
#NOTES:
0000
0000
0000
0000
0000
0000
1000
0000
,
0000
0000
0000
0000
0000
0000
1000
0000
,
0000
0000
0000
0000
0000
0000
0001
0000
,
0000
0000
0000
0000
0000
0000
1000
0000
,
0000
0000
0000
0000
0000
0000
0001
0000
,
0000
0000
0000
0000
0000
0000
0001
0000
,
0000
0000
0000
0000
0000
0000
0001
0000
,
0000
0000
0000
0000
0000
0000
0001
0000
,
0001
0000
0000
0000
0001
0000
0000
0000
,
0000
0000
0000
0000
0000
0000
1000
0000
,
0001
0000
0000
0000
0001
0000
0000
0000
,
0001
0000
0000
0000
0001
0000
0000
0000
,
0002
0000
0001
0000
1000
0000
0010
0000
,
0000
0000
0001
0000
0002
0000
1000
0000
,
0001
0000
1000
0000
0100
0000
1000
0000
,
1003
0000
0011
0000
0010
0100
0100
1000
,
0001
0000
0001
1000
0001
1000
0100
0010
,
1000
0000
0100
1000
0001
0100
0001
0000
,
0001
0100
0001
0100
0010
1000
0100
0000
,
1000
0100
1000
0100
0010
0001
0100
0000
,
0001
0100
0001
0100
0001
0000
1100
0000
,
1000
0001
0100
0010
0100
0010
1000
0000
,
0011
0000
0010
0001
0010
0000
0001
0000
,
1000
0000
0000
0100
0100
0010
0001
0100
,
0001
0100
0010
0000
0110
0000
0010
0001
,
0001
0100
0001
0100
0010
1000
0100
0000
,
1000
0100
1000
0000
0101
0000
0001
0000
,
0001
0010
0100
0000
1001
0000
1000
1000
,
0001
0100
0010
0000
0110
0000
0010
0001
,
1000
0100
1000
0000
0101
0000
0001
0000
,
1000
0100
0010
0100
0010
0100
1000
0000
,
0110
0000
0100
0010
1000
0010
0100
0001
,
0001
0000
1000
0010
0100
0010
1000
0000
,
1000
0100
1000
0100
0010
0000
0001
0100
,
0001
0001
0100
0010
0100
0010
1000
0001
,
0001
0000
0011
0000
0000
1000
0100
1000
,
1000
0001
0100
0010
1000
0000
0101
0000
,
0000
1000
0100
0010
0001
0001
0010
1000
,
1000
0100
1000
0100
0010
0000
0001
0100
,
0001
0010
0001
0010
0100
0000
1000
0010
,
0001
0001
0100
0010
0100
0010
1000
0001
,
0001
0000
0101
0000
0000
0001
0010
0000
,
1000
0000
0000
0000
0000
0010
1000
0000
,
0000
0000
0001
0000
0001
0001
1000
0000
,
0101
0000
0010
0100
0010
0100
0001
0000
,
0011
0000
0001
0100
0100
0000
0001
0000
,
1000
0000
0001
0001
1000
0000
0010
0000
,
1000
0010
0100
0000
0010
0000
0100
0000
,
0101
0000
0010
0100
0010
0100
0001
0000
,
0011
0000
0001
0100
0100
0000
0001
0000
,
1000
0010
1000
0000
0100
0000
0010
0100
,
1000
0001
1000
0000
1010
0000
0001
0000
,
0101
0000
0010
0100
0010
0100
0001
0100
,
1000
0010
0100
0000
0010
0000
0100
0010
,
0001
1000
0100
0000
0100
0000
0100
0000
,
1000
0010
1000
0000
0100
0000
0010
0100
,
0001
1000
0100
0000
0100
0000
0100
0000
,
0001
1000
0010
0000
0010
0000
0010
0000
,
0001
1000
0010
0000
0010
0000
0010
0000
,
1000
0000
0000
0000
0000
0010
1000
0000
,
0001
0000
0000
0000
0001
0000
0000
0000
,
;

//---------------dance-single - Heavy----------------
#NOTEDATA:;
#CHARTNAME:Heavy;
#STEPSTYPE:dance-single;
#DESCRIPTION:Heavy;
#CHARTSTYLE:;
#DIFFICULTY:Hard;
#METER:8;
#RADARVALUES:0.474468,0.491411,0.171298,0.000000,0.000000,349.000000,331.000000,18.000000,0.000000,0.000000,0.000000,0.000000,0.000000,0.000000,0.474468,0.491411,0.171298,0.000000,0.000000,349.000000,331.000000,18.000000,0.000000,0.000000,0.000000,0.000000,0.000000,0.000000;
#CREDIT:Heavy;
#NOTES:
0000
0000
0000
0000
0000
0000
1000
0000
,
0000
0000
0000
0000
0000
0000
0001
0000
,
0000
0000
0000
0000
0000
0000
1000
0000
,
0000
0000
0000
0000
0000
0000
0001
0000
,
0000
0000
0000
0000
0000
0000
1000
0000
,
0000
0000
0000
0000
0000
0000
1000
0000
,
0000
0000
0000
0000
0000
0000
1000
0000
,
0000
0000
0000
0000
0000
0000
0001
0000
,
0001
0000
0001
0000
0001
0000
0010
0000
,
0000
0000
0000
0000
0000
0000
1000
0000
,
0001
0000
0001
0000
0001
0000
0010
0000
,
0001
0000
0001
0000
0001
0000
0010
0000
,
0020
0000
0010
0000
0001
0000
1000
0000
,
1000
0000
1000
0000
2030
0000
0100
0000
,
0001
0000
1000
0000
0000
0000
0001
0000
,
3001
0000
0101
0000
0100
0001
0001
0010
,
1000
0100
0100
0010
0100
0010
0100
1000
,
1000
0000
0010
1000
0010
1000
0010
0000
,
1000
0010
0100
0001
1000
0010
0100
1000
,
1000
0010
0100
0001
1000
0010
0100
1000
,
1000
0000
0100
0000
1000
0000
1100
0000
,
0001
1000
0100
0001
0100
0010
0100
0000
,
0110
0000
1000
0100
1000
0010
1000
0001
,
0001
0000
0000
0100
0100
0001
0100
0001
,
0001
1000
0010
0000
0110
0000
0100
0001
,
1000
0010
0100
0001
1000
0010
0100
1000
,
1000
0010
0100
0000
1100
0000
0001
0000
,
1000
0010
0001
0000
0101
0000
0100
0100
,
0001
1000
0010
0000
0110
0000
0100
0001
,
1000
0010
0100
0000
1100
0000
0001
0000
,
0001
0010
0100
1000
0100
1000
0010
0000
,
0011
0000
0100
0010
1000
0100
1000
0100
,
0001
0000
1000
0001
0000
0100
0001
0010
,
1000
0100
0010
0001
0100
0001
0010
0100
,
1000
1000
0100
0010
0100
0010
0100
1000
,
1000
0000
1010
0000
0000
0010
1000
0010
,
1000
0001
0010
0001
0010
0000
0011
0000
,
0001
0010
0100
0001
0100
0100
1000
0010
,
1000
0100
0010
0001
0100
0001
0010
0100
,
1000
0010
0100
0001
0010
0001
0100
0010
,
1000
1000
0100
0010
0100
0010
0100
1000
,
0001
0000
0011
0000
0000
1000
0100
0000
,
1000
0001
0000
0000
0001
0100
0010
1000
,
1000
0001
1000
0010
0010
0010
0100
0000
,
1100
0000
1000
0000
0001
1000
0001
0000
,
0110
0000
0100
0010
0010
0000
0100
0010
,
0001
0100
0010
0010
0001
0100
1000
0100
,
0001
1000
0001
0010
0100
1000
0001
0000
,
1100
0000
1000
0000
0001
1000
0001
0000
,
0110
0000
0100
0010
0010
0000
0100
0010
,
1000
0001
1000
0010
0100
0001
0010
0001
,
0000
0001
0100
0000
1001
0000
0001
0000
,
1100
0000
1000
0000
0001
1000
0001
0100
,
0001
1000
0001
0010
0100
1000
0001
0100
,
1000
0100
0001
0100
0100
0000
0100
0010
,
1000
0001
1000
0010
0100
0001
0010
0001
,
1000
0100
0001
0100
0100
0000
0100
0010
,
1000
0010
0001
0010
0010
0000
0010
0100
,
1000
0010
0001
0010
0010
0000
0010
0100
,
1000
0001
0000
0000
0001
0100
0010
1000
,
0001
0000
0001
0000
0001
0000
0010
0000
,
;
