#VERSION:0.83;
#TITLE:Phil of the Future Op;
#SUBTITLE:22nd century patterns;
#ARTIST:Disney;
#TITLETRANSLIT:;
#SUBTITLETRANSLIT:;
#ARTISTTRANSLIT:;
#GENRE:;
#ORIGIN:;
#CREDIT:;
#BANNER:bn.jpg;
#BACKGROUND:bg.jpg;
#PREVIEWVID:;
#JACKET:;
#CDIMAGE:;
#DISCIMAGE:;
#LYRICSPATH:;
#CDTITLE:shadow-cdtitle.png;
#MUSIC:Phil of the Future Theme Song.mp3;
#OFFSET:0.002000;
#SAMPLESTART:-0.002000;
#SAMPLELENGTH:25.000000;
#SELECTABLE:YES;
#BPMS:0.000=170.000;
#STOPS:;
#DELAYS:;
#WARPS:;
#TIMESIGNATURES:0.000=4=4;
#TICKCOUNTS:0.000=4;
#COMBOS:0.000=1;
#SPEEDS:0.000=1.000=0.000=0;
#SCROLLS:0.000=1.000;
#FAKES:;
#LABELS:0.000=Song Start;
#BGCHANGES:;
#KEYSOUNDS:;
#ATTACKS:
;

//---------------dance-single - ----------------
#NOTEDATA:;
#CHARTNAME:;
#STEPSTYPE:dance-single;
#DESCRIPTION:;
#CHARTSTYLE:;
#DIFFICULTY:Beginner;
#METER:22;
#RADARVALUES:1.782079,2.277126,0.299389,0.000000,5.059678,625.000000,610.000000,15.000000,0.000000,0.000000,0.000000,0.000000,0.000000,0.000000,1.782079,2.277126,0.299389,0.000000,5.059678,625.000000,610.000000,15.000000,0.000000,0.000000,0.000000,0.000000,0.000000,0.000000;
#CREDIT:;
#NOTES:
0000
0000
0000
0000
0000
0000
0000
0000
1000
0000
0100
0001
0000
0010
0000
1000
0000
0100
0000
0001
0010
0000
0100
1000
0000
0000
0001
0000
1010
0000
0100
0000
0000
0001
0010
1000
0000
0100
0000
0001
0010
0000
0100
1000
0000
0010
0000
0000
,
1000
0000
0000
0000
0100
0000
0000
0000
0000
0000
0001
0000
0000
0000
0000
0000
0000
0000
0000
0000
0000
0000
1000
0000
0000
0000
0000
0000
0000
0000
0000
0000
0000
0000
0000
0000
0000
0000
0000
0010
0000
0000
0000
0100
0000
0000
0000
0000
,
0000
0001
0000
0000
0000
0000
0000
0000
0000
0000
0000
0000
0000
1000
0000
0000
0000
0000
0000
0010
0000
0000
0000
0000
0000
0000
0000
0000
0000
0000
0000
0000
0000
0000
0000
0100
0000
0000
0000
0000
0000
0000
0010
0000
0000
0000
0000
1000
,
0000
0000
0000
0000
0000
0001
0000
0000
0000
0000
0100
0000
0000
0000
0000
0000
0000
0000
0010
0000
0000
0000
0000
0000
0000
1000
0000
0000
0000
0000
0010
0000
0000
0000
0000
0000
0100
0000
0000
0000
0000
0000
0001
0000
0000
0000
0000
0000
,
1000
0000
0000
0000
0000
0000
0101
0000
0000
0101
0000
0000
0000
0000
0000
0000
0000
1000
0000
0000
0010
0000
0000
0100
,
0000
0000
0000
0001
0000
0000
0000
0000
0000
1000
0000
0000
0000
0000
0000
0000
0010
0000
0000
0000
0000
0000
0100
0000
0000
0000
0000
0000
0000
0000
0000
0000
0000
0000
1000
0000
0000
0000
0000
0000
0010
0000
0000
0000
0000
0000
0100
0000
,
0000
0000
0000
0001
0000
0000
0000
0000
0000
0000
0000
0000
0000
0000
1001
0000
0000
0000
0000
0000
0000
0000
0000
0000
0000
0000
0000
0000
0000
0000
0000
0100
0000
0000
0000
0000
0000
0010
0000
0000
0000
0000
0000
1000
0000
0000
0000
0000
,
0000
0000
0000
0000
0000
0000
0000
0010
0000
0000
0000
0000
0000
0000
0000
0000
0000
0000
0000
0000
0100
0000
0000
0000
0000
0000
0000
0000
0000
0000
0001
0000
0000
0000
0000
0000
0000
0000
0000
0000
0000
0000
1001
0000
0000
0000
0000
0000
,
0110
0000
0000
0000
0000
1001
0000
0000
0000
0000
0000
0110
0000
0000
0000
0000
0000
0000
0000
0000
0000
0000
0000
0000
0000
1000
0000
0000
0000
0000
0000
0010
0000
0000
0000
0000
0100
0000
0000
0000
0000
0000
0001
0000
1000
0000
0000
0001
,
0000
0100
0000
0001
0000
0000
1000
0000
0000
0010
0000
0100
0000
0010
0000
0000
1000
0000
0010
0000
0100
0000
0001
0000
1000
0000
0000
0001
0000
0100
0000
0001
0000
1000
0000
0010
0000
0000
0100
0000
0010
0000
1000
0000
0000
0001
0100
0000
,
0000
0001
0000
1000
0000
0000
0010
0000
0100
0000
0000
0010
1000
0000
0000
0001
0100
0000
0000
0001
0000
1000
0000
0000
0010
0000
0100
0000
0010
0000
1000
0000
0010
0000
0100
0000
0000
0001
0000
1000
0000
0001
0000
0000
1000
0100
0000
0000
,
0010
0000
0000
1000
0100
0000
0000
0010
0000
1000
0000
0100
0000
0010
0000
0000
0100
0000
0001
0000
0010
0000
0100
0000
0001
0000
0010
0100
0000
0000
0001
0000
0000
0100
0000
0000
0010
0000
0000
0100
0000
0000
1010
0000
0000
0000
1000
0000
,
0000
0010
0000
0000
0100
0000
0000
0010
0000
1000
0000
0000
0001
0000
0100
0000
0000
0001
1000
0000
0000
0010
0000
0100
0000
0010
0000
1000
0000
0000
0010
0000
0100
0000
0010
0000
0000
1000
0000
0001
0000
1000
0000
0100
0000
0010
0000
0000
,
1000
0100
0000
0010
0000
0000
1000
0100
0000
0000
0010
0000
0000
0100
0000
0001
0000
0010
0100
0000
0000
0000
0001
0000
0110
0000
0000
0000
0001
0000
0010
0100
0000
0000
0001
0010
0000
1000
0000
0100
0000
0010
0000
1000
0000
0100
0000
0010
,
0000
1000
0000
0100
0000
0001
0000
0000
0000
0100
0000
0000
0001
0000
1000
0000
0000
0010
0000
0100
0000
0010
0000
1000
0000
0000
0001
0100
0000
0000
0001
0000
1000
0000
0000
0010
0000
0000
0100
0000
0010
0000
1000
0000
0001
0000
0000
0100
,
0000
0001
0000
1000
0000
0001
0000
0000
0100
0000
0001
0000
1000
0000
0000
0010
0000
0100
0000
0010
0000
1000
0000
0000
0010
0000
0100
0000
0001
0000
0000
1000
0000
0001
0000
0000
0100
0000
0001
0000
1000
0000
0000
0010
0000
0100
0000
0000
,
0010
0000
1000
0000
0000
0010
0100
0000
0000
0000
0001
1000
0000
0000
0001
0000
1000
0100
0000
0010
0000
1000
0100
0000
0010
0000
1000
0000
0100
0000
0001
0000
0010
0000
0100
0000
0001
0010
0000
1000
0000
0100
0000
0010
0000
0000
1000
0000
,
0000
0010
0000
0000
0100
0000
0000
0001
0000
1000
0000
0001
0000
0100
0000
0010
0000
1000
0000
0010
0000
0100
0000
0000
0001
0000
1000
0000
0001
0000
0100
0000
0000
0010
0000
1000
0000
0000
0010
0000
1000
0000
0010
0000
0000
0100
0000
0010
,
0000
0000
0000
0000
0100
0000
0000
0010
0000
0100
0000
0000
0001
0000
1000
0000
0000
0001
0000
0100
0000
0000
0010
0000
1000
0000
0000
0010
0000
0100
0000
0010
0000
0000
1000
0000
0000
0001
0000
0100
0000
0000
0000
0010
0000
0000
1000
0000
,
0000
0000
0010
0000
0000
0000
0100
0000
0000
0000
0001
0000
1000
0000
0000
0000
0010
0000
0100
0000
0000
0010
0000
1000
0000
0010
0000
0100
0000
0000
0000
0001
0000
1000
0000
0001
0000
0100
0000
0010
0000
0100
0000
0000
0000
0010
0000
1000
,
0000
0000
0010
0000
0100
0000
0010
0000
0000
0100
0000
0000
0010
0000
0000
0000
0001
0000
1000
0000
0100
0000
0000
0000
0010
0000
0000
1000
0000
0010
0000
0100
0000
0000
0000
0001
0000
1000
0000
0000
0010
0000
0100
0000
0000
0000
0010
0000
,
0000
1000
0000
0000
0000
0010
0000
0000
0100
0000
0000
0001
0000
1000
0000
0000
0010
0000
0000
0100
0000
0000
0010
0000
1000
0000
0000
0000
0001
0000
0100
0000
0001
0000
0000
1000
0000
0010
0000
0100
0000
0010
0000
0000
1000
0000
0000
0010
,
0000
0000
0100
0000
0000
0001
0000
1000
0000
0000
0010
0000
0000
0000
0000
0100
0000
0000
0000
0010
0000
0000
1000
0000
0000
0000
0001
0000
0000
0100
0000
0000
0010
0000
1000
0000
0010
0000
0100
0000
0000
0000
0000
0000
1001
0000
0000
0000
,
0000
0000
0100
0000
0000
0010
0000
0000
0000
1000
0000
0000
0010
0000
0000
0100
0000
0000
0001
0000
0000
1000
0000
0000
0010
0000
0100
0000
0000
0010
0000
1000
0000
0000
0000
0010
0000
0100
0000
0000
0000
0010
0000
1000
0000
0000
0000
0001
,
0000
0100
0000
0000
0010
0000
1000
0000
0000
0010
0000
0100
0000
0000
0010
0000
1000
0000
0001
0000
0000
0100
0000
0000
0000
0010
0000
0000
1000
0000
0000
0010
0000
0100
0000
0000
0001
0000
1000
0000
0000
0001
0000
0000
0100
0000
0001
0000
,
0000
0100
0000
0000
0010
0000
0100
0000
0000
0010
0000
1000
0000
0010
0000
0100
0000
0010
0000
0000
0100
0000
0001
0000
0100
0000
0001
0000
0000
1000
0000
0010
0000
0000
1000
0000
0010
0000
0100
0000
0000
0010
0000
0100
0000
0000
0001
0000
,
1000
0000
0001
0000
0000
0000
0100
0000
0010
0000
0100
0000
0010
0000
0000
1000
0010
0000
0000
0100
0000
0010
0000
0100
0000
0000
0001
0000
0000
0100
0000
0001
0000
0100
0000
0000
0010
0100
0000
0000
0010
0000
1000
0000
0010
0000
0000
0100
,
0000
0000
0001
0000
1000
0000
0000
0001
1000
0000
0100
0010
0000
0000
1000
0100
0000
0000
0010
0000
1000
0100
0000
0000
0001
0000
0010
0100
0000
0000
0001
0000
0010
1000
0000
0000
0100
0000
0010
0000
0000
1000
0000
0100
0000
0001
0000
0000
,
1000
0100
0000
0001
0000
1000
0000
0110
0000
0000
0000
1000
0000
0000
0010
0000
0000
0100
0000
0000
0010
0000
0000
0100
0000
0000
0010
0000
0100
0000
0000
0000
0001
0000
0000
1000
0000
0000
0001
0000
0100
0000
0000
0010
0000
0000
1000
0000
,
0000
0010
0000
0100
0000
0000
0001
0000
1000
0000
0000
0010
0000
0000
0100
0000
0000
0010
0000
0100
0000
0000
0010
1000
0000
0000
0010
0000
0100
0000
0000
0001
0000
1000
0000
0001
0000
0000
0100
0000
0000
0010
0000
0000
1000
0000
0000
0010
,
0000
0000
0100
0010
0000
0000
1000
0000
0001
0000
0000
0000
0100
0001
0000
0000
0000
0100
0000
0010
0000
0000
1000
0000
0000
0010
0000
0000
0100
0000
0000
0001
0000
1000
0000
0000
0010
0000
1000
0000
0100
0000
0001
0000
0010
1000
0000
0100
,
0000
0001
0000
0010
1000
0100
0000
0000
0010
0000
1000
0100
0000
0010
0000
1000
0100
0000
0001
0000
0010
0100
0000
0000
0001
0010
1000
0000
0100
0010
0000
1000
0100
0000
0010
1000
0100
0000
0001
0010
0000
0100
0000
0001
0000
0010
1000
0100
,
0000
0010
0000
1000
0000
0100
0000
0001
0000
1000
0000
0100
0000
0001
1000
0000
0100
0000
0010
0000
1000
0100
0000
0001
0010
0000
1000
0000
0100
0010
0000
0000
0100
0000
0000
0001
0000
1000
0100
0000
0001
0010
0000
1000
0000
0100
0000
0001
,
0010
0000
1000
0100
0000
0001
0010
0100
0000
1000
0001
0010
0000
1000
0100
0000
0001
0010
1000
0100
0000
0000
0001
0010
0100
1000
0000
0001
0010
1000
0000
0100
0000
0001
0010
1000
0100
0000
0000
0011
0000
0100
1000
0000
0001
0010
0000
1000
,
0100
0000
0000
0011
0100
1000
0000
0000
0001
0010
1000
0100
0000
0000
0010
0100
0000
1000
0011
0000
0000
1000
0100
0000
0001
0010
0000
0000
0000
1000
0000
0000
0000
0000
0000
0100
0000
0000
0000
0000
0010
0000
0000
0000
0000
0000
0000
1000
,
0000
0000
0000
0000
0000
0100
0000
0000
0000
0000
0000
0000
0000
0000
0000
0000
0000
0000
0000
0000
0000
0000
0000
0000
0000
0000
0000
0000
0000
0000
0000
0000
0000
0000
0000
0000
0000
0000
0000
0000
0000
0000
0000
0000
0000
0000
0000
0000
;

//---------------dance-single - ----------------
#NOTEDATA:;
#CHARTNAME:;
#STEPSTYPE:dance-single;
#DESCRIPTION:;
#CHARTSTYLE:;
#DIFFICULTY:Easy;
#METER:22;
#RADARVALUES:0.199593,0.208076,0.000000,0.000000,0.000000,70.000000,70.000000,0.000000,0.000000,0.000000,0.000000,0.000000,0.000000,0.000000,0.199593,0.208076,0.000000,0.000000,0.000000,70.000000,70.000000,0.000000,0.000000,0.000000,0.000000,0.000000,0.000000,0.000000;
#CREDIT:;
#NOTES:
// measure 0
0000
0000
0000
0000
,  // measure 1
1000
0000
0001
0000
,  // measure 2
0100
0000
0010
0000
,  // measure 3
1000
0000
0010
0000
,  // measure 4
1000
0001
0000
0010
,  // measure 5
0000
0100
0000
0001
,  // measure 6
1000
0000
0010
0000
,  // measure 7
0100
0000
0001
0000
,  // measure 8
1000
0000
0010
0000
,  // measure 9
0100
0000
0001
0000
,  // measure 10
0010
0000
1000
0000
,  // measure 11
0100
0000
0010
0000
,  // measure 12
0001
0000
1000
0000
,  // measure 13
0010
0000
0100
0000
,  // measure 14
0001
0000
0100
0000
,  // measure 15
0010
0000
0100
0000
,  // measure 16
0001
0000
1000
0000
,  // measure 17
0100
0000
0010
0000
,  // measure 18
0001
0000
0010
0000
,  // measure 19
1000
0000
0100
0000
,  // measure 20
0010
0000
0001
0000
,  // measure 21
1000
0000
0010
0000
,  // measure 22
0100
0000
0001
0000
,  // measure 23
1000
0000
0010
0000
,  // measure 24
0100
0000
0001
0000
,  // measure 25
0010
0000
0100
0000
,  // measure 26
1000
0000
0010
0000
,  // measure 27
0100
0000
0001
0000
,  // measure 28
0010
0000
0100
0000
,  // measure 29
0001
0000
0010
0000
,  // measure 30
1000
0000
0100
0000
,  // measure 31
0010
0000
0001
0000
,  // measure 32
1000
0000
0010
0000
,  // measure 33
0100
0000
0001
0000
,  // measure 34
0010
1000
0000
0100
;
