#TITLE:Party Tonight ;
#SUBTITLE:;
#ARTIST:Regular Show;
#TITLETRANSLIT:;
#SUBTITLETRANSLIT:;
#ARTISTTRANSLIT:;
#GENRE:;
#CREDIT:Gorilla v1.1.3 (Dancing Monkeys v1.06);
#BANNER:;
#BACKGROUND:;
#LYRICSPATH:;
#CDTITLE:;
#MUSIC:Party Tonight (2023 Remaster).mp3;
#OFFSET:-1.284437;
#SAMPLESTART:44.140686;
#SAMPLELENGTH:12.000000;
#SELECTABLE:YES;
#BPMS:0.000000=140.002914
;
#STOPS:
;
#BGCHANGES:;
#KEYSOUNDS:;
#ATTACKS:;

//---------------dance-single - Basic----------------
#NOTES:
     dance-single:
     Basic:
     Easy:
     3:
     0.157965,0.224075,0.000000,0.092146,0.000000,156.000000,156.000000,0.000000,13.000000,0.000000,0.000000,0.157965,0.224075,0.000000,0.092146,0.000000,156.000000,156.000000,0.000000,13.000000,0.000000,0.000000:
// measure 0
1000
0000
0000
0000
,  // measure 1
0000
0000
0000
0000
,  // measure 2
0001
0000
0000
0000
,  // measure 3
0000
0000
0000
0000
,  // measure 4
0000
0002
0000
0003
,  // measure 5
0000
2000
0000
3000
,  // measure 6
0000
0002
0000
0000
,  // measure 7
0003
0000
2000
0000
,  // measure 8
0000
3000
0020
0000
,  // measure 9
0030
0000
0200
0000
,  // measure 10
0000
0300
0000
0002
,  // measure 11
0000
0000
0003
0000
,  // measure 12
2000
0000
3000
0000
,  // measure 13
1000
0000
0010
0000
,  // measure 14
1000
1000
0000
0100
,  // measure 15
0001
0000
1000
0010
,  // measure 16
1000
0100
1000
0000
,  // measure 17
1000
0000
1000
0010
,  // measure 18
1000
1000
0000
0010
,  // measure 19
1000
0100
1000
0000
,  // measure 20
0001
1000
0010
0000
,  // measure 21
1000
0000
1000
0010
,  // measure 22
0001
0000
0001
0000
,  // measure 23
1000
0010
1000
0010
,  // measure 24
1000
1000
0000
0000
,  // measure 25
1000
1000
0010
0001
,  // measure 26
1000
0010
0010
0000
,  // measure 27
1000
0100
1000
0000
,  // measure 28
1000
0010
0000
0000
,  // measure 29
1000
0000
0001
0010
,  // measure 30
0010
0001
0000
0000
,  // measure 31
0010
0010
1000
1000
,  // measure 32
1000
2000
0000
3000
,  // measure 33
0001
0001
0000
0001
,  // measure 34
0000
1000
0010
0000
,  // measure 35
1000
0000
0100
0000
,  // measure 36
0010
0010
0000
0010
,  // measure 37
0000
1000
0000
0001
,  // measure 38
0000
0010
0000
0100
,  // measure 39
2000
0000
0000
3000
,  // measure 40
1000
1000
0000
0001
,  // measure 41
1000
1000
0000
0001
,  // measure 42
1000
2000
0000
3000
,  // measure 43
1000
1000
0010
0001
,  // measure 44
1000
1000
0010
0001
,  // measure 45
0001
0001
0000
1000
,  // measure 46
1000
2000
0000
3000
,  // measure 47
0001
0001
0010
0001
,  // measure 48
0010
0002
0000
0003
,  // measure 49
1000
0000
1000
0000
,  // measure 50
0010
0000
0100
0000
,  // measure 51
0001
0000
0010
0000
,  // measure 52
1000
0000
0010
0000
,  // measure 53
1000
0000
0010
0000
,  // measure 54
1000
0000
0010
0000
,  // measure 55
0001
0000
0100
0000
,  // measure 56
0010
0000
1000
0000
,  // measure 57
0010
0000
0100
0000
,  // measure 58
0001
0000
0010
0000
,  // measure 59
0001
0000
1000
0000
,  // measure 60
0010
0000
0100
0000
,  // measure 61
0010
0000
1000
0000
,  // measure 62
0001
0000
0010
0000
,  // measure 63
1000
0000
0010
0000
,  // measure 64
0001
0001
0000
0000
,  // measure 65
0010
0000
1000
0000
,  // measure 66
0001
0000
0010
0000
,  // measure 67
1000
1000
0001
0001
,  // measure 68
0001
0000
1000
0010
,  // measure 69
1000
1000
0000
0001
,  // measure 70
0000
1000
0000
0000
;
