#VERSION:0.83;
#TITLE:Parappa Anime Ed 1;
#SUBTITLE:;
#ARTIST:Dancing Monkeys Project;
#TITLETRANSLIT:;
#SUBTITLETRANSLIT:;
#ARTISTTRANSLIT:;
#GENRE:;
#ORIGIN:;
#CREDIT:Gorilla v1.1.3 (Dancing Monkeys v1.06);
#BANNER:artworks-000243914327-exz02y-t500x500.png;
#BACKGROUND:juxbzle3td3rnul2etsymo6fifwlnnrx_hq.png;
#PREVIEWVID:;
#JACKET:;
#CDIMAGE:;
#DISCIMAGE:;
#LYRICSPATH:;
#CDTITLE:;
#MUSIC:onlymp3.to - HQ BENNIE K School Girl-tHZGLy_SCjc-192k-1707982211.mp3;
#OFFSET:-1.068396;
#SAMPLESTART:47.779400;
#SAMPLELENGTH:12.000000;
#SELECTABLE:YES;
#BPMS:0.000=143.863;
#STOPS:;
#DELAYS:;
#WARPS:;
#TIMESIGNATURES:0.000=4=4;
#TICKCOUNTS:0.000=4;
#COMBOS:0.000=1;
#SPEEDS:0.000=1.000=0.000=0;
#SCROLLS:0.000=1.000;
#FAKES:;
#LABELS:0.000=Song Start;
#BGCHANGES:;
#KEYSOUNDS:;
#ATTACKS:
;

//---------------dance-single - Basic----------------
#NOTEDATA:;
#CHARTNAME:Basic;
#STEPSTYPE:dance-single;
#DESCRIPTION:Basic;
#CHARTSTYLE:;
#DIFFICULTY:Easy;
#METER:4;
#RADARVALUES:0.245958,0.220147,0.000000,0.008399,0.000000,410.000000,410.000000,0.000000,2.000000,0.000000,0.000000,0.000000,0.000000,0.000000,0.245958,0.220147,0.000000,0.008399,0.000000,410.000000,410.000000,0.000000,2.000000,0.000000,0.000000,0.000000,0.000000,0.000000;
#CREDIT:Basic;
#NOTES:
// measure 0
0000
1000
0010
0000
,  // measure 1
0001
1000
0010
0100
,  // measure 2
0000
0010
0001
0000
,  // measure 3
0200
0000
0300
0000
,  // measure 4
1000
0001
1000
0000
,  // measure 5
0000
0010
1000
0000
,  // measure 6
0001
0100
0001
0000
,  // measure 7
0200
0000
0000
0300
,  // measure 8
1000
0010
0000
1000
,  // measure 9
0001
1000
0010
1000
,  // measure 10
1000
0001
0100
0010
,  // measure 11
1000
0010
1000
1000
,  // measure 12
1000
0001
0100
0000
,  // measure 13
1000
0000
0001
0001
,  // measure 14
0000
0001
0010
0010
,  // measure 15
0001
1000
0001
0000
,  // measure 16
0000
1000
0000
0010
,  // measure 17
0000
1000
0010
0100
,  // measure 18
1000
0001
0100
0010
,  // measure 19
1000
0100
0010
1000
,  // measure 20
0001
0010
0001
0010
,  // measure 21
1000
0001
0100
0010
,  // measure 22
1000
0001
0010
0000
,  // measure 23
0001
0010
0001
0010
,  // measure 24
0000
0001
0000
0100
,  // measure 25
0001
0100
0001
1000
,  // measure 26
1000
0010
0001
0001
,  // measure 27
0001
0010
0001
0010
,  // measure 28
0001
0010
0001
0010
,  // measure 29
1000
0100
1000
0100
,  // measure 30
1000
0100
1000
0100
,  // measure 31
0001
1000
0100
0010
,  // measure 32
0000
1000
0000
0010
,  // measure 33
0000
1000
0010
0100
,  // measure 34
1000
1000
0100
0010
,  // measure 35
1000
0010
1000
0100
,  // measure 36
1000
0001
0100
0010
,  // measure 37
1000
0100
0010
0001
,  // measure 38
1000
0001
0100
0010
,  // measure 39
0001
0010
0001
0010
,  // measure 40
1000
0010
0000
1000
,  // measure 41
0001
1000
0010
1000
,  // measure 42
1000
0001
0100
0010
,  // measure 43
1000
0010
1000
0100
,  // measure 44
1000
0001
0100
0010
,  // measure 45
1000
0100
0010
0001
,  // measure 46
1000
0001
0100
0010
,  // measure 47
0000
1000
0010
0100
,  // measure 48
1000
0000
0000
0000
,  // measure 49
0000
0001
1000
0000
,  // measure 50
1000
0000
0001
0100
,  // measure 51
0001
1000
0010
0100
,  // measure 52
0001
0100
0001
0000
,  // measure 53
0001
0010
0001
0010
,  // measure 54
1000
0001
1000
0000
,  // measure 55
1000
0100
0010
0100
,  // measure 56
0001
0100
0001
1000
,  // measure 57
1000
0010
0010
1000
,  // measure 58
1000
0010
0000
1000
,  // measure 59
0001
0010
1000
0001
,  // measure 60
1000
0010
0100
0001
,  // measure 61
1000
0100
0010
1000
,  // measure 62
0001
0010
0001
0010
,  // measure 63
1000
0100
1000
0100
,  // measure 64
1000
0001
0100
0010
,  // measure 65
0001
0010
0001
0010
,  // measure 66
1000
0010
0000
1000
,  // measure 67
0001
1000
0010
1000
,  // measure 68
1000
0001
0100
0010
,  // measure 69
1000
0010
1000
0100
,  // measure 70
1000
0001
0100
0010
,  // measure 71
1000
0100
0010
0001
,  // measure 72
1000
0001
0100
0010
,  // measure 73
0001
0010
0001
0010
,  // measure 74
1000
0010
0000
1000
,  // measure 75
0001
1000
0010
1000
,  // measure 76
1000
0001
0100
0010
,  // measure 77
1000
0010
1000
0100
,  // measure 78
1000
0001
0100
0010
,  // measure 79
1000
0100
0010
0001
,  // measure 80
1000
0001
0010
0000
,  // measure 81
0001
0010
0001
0010
,  // measure 82
1000
0010
0000
1000
,  // measure 83
0000
1000
0010
0000
,  // measure 84
1000
0001
0100
0010
,  // measure 85
1000
0100
0010
1000
,  // measure 86
1000
0001
0100
0010
,  // measure 87
1000
0100
0010
0001
,  // measure 88
1000
0001
0010
0000
,  // measure 89
0001
0010
0001
0010
,  // measure 90
1000
0010
0000
1000
,  // measure 91
1000
0100
0010
0001
,  // measure 92
1000
0001
0100
0010
,  // measure 93
1000
0100
0010
1000
,  // measure 94
1000
0001
0100
0010
,  // measure 95
1000
0100
0010
0001
,  // measure 96
1000
0001
0010
0000
,  // measure 97
1000
0100
0010
0001
,  // measure 98
0001
0000
0100
0001
,  // measure 99
0001
0100
0010
0000
,  // measure 100
1000
0010
1000
1000
,  // measure 101
0001
0010
0001
0010
,  // measure 102
1000
0010
1000
1000
,  // measure 103
0001
0100
0010
0000
,  // measure 104
1000
0010
1000
1000
,  // measure 105
1000
0010
0010
0000
,  // measure 106
1000
0010
1000
1000
,  // measure 107
0001
0100
0010
0000
,  // measure 108
1000
0010
1000
1000
,  // measure 109
0001
0100
0010
0000
,  // measure 110
1000
0010
1000
1000
,  // measure 111
0001
0100
0010
0000
,  // measure 112
1000
0010
1000
1000
,  // measure 113
1000
0010
0010
0000
,  // measure 114
1000
0010
1000
1000
,  // measure 115
0001
0100
0010
0000
,  // measure 116
0001
1000
0001
0000
;

//---------------dance-single - Standard----------------
#NOTEDATA:;
#CHARTNAME:Standard;
#STEPSTYPE:dance-single;
#DESCRIPTION:Standard;
#CHARTSTYLE:;
#DIFFICULTY:Medium;
#METER:5;
#RADARVALUES:0.320945,0.342451,0.020996,0.000000,0.000000,535.000000,530.000000,5.000000,0.000000,0.000000,0.000000,0.000000,0.000000,0.000000,0.320945,0.342451,0.020996,0.000000,0.000000,535.000000,530.000000,5.000000,0.000000,0.000000,0.000000,0.000000,0.000000,0.000000;
#CREDIT:Standard;
#NOTES:
0000
0000
0000
0000
0000
0000
0000
0000
,
0000
0000
0000
0000
0000
0000
0000
0000
,
1000
0000
0010
0000
0000
1000
0000
0000
,
0001
0000
0000
0010
0100
0010
0000
0000
,
0001
0001
1000
0000
0001
0000
1000
0000
,
0000
0000
0001
0000
0010
0100
0000
1000
,
0001
0000
0000
0010
0100
0010
0000
0000
,
0000
0000
1000
0000
0001
0000
0100
0010
,
0000
0000
1000
1000
0000
0100
0000
1000
,
0000
0000
1000
0000
0001
0100
0000
0001
,
0001
0000
1000
0100
1000
0010
0000
0000
,
0000
0000
0001
0000
0010
0100
1000
0001
,
0001
0000
0010
0000
0001
0100
0000
0001
,
1000
0000
0010
0000
1000
0000
0100
0000
,
0101
0000
0001
0100
0001
1000
0000
0000
,
1000
0000
0001
0000
0100
0000
0000
0000
,
0000
1000
0001
0000
0000
0010
0000
0000
,
0000
0001
0010
0000
0100
1000
0100
0000
,
0001
0000
1000
0100
1000
0010
0000
0000
,
0001
1000
0001
0000
1000
0000
0100
0000
,
0001
0100
0010
0000
0100
0000
0000
0001
,
0001
0000
0010
0000
0001
0100
0000
0000
,
0101
0000
0001
0100
0001
1000
0000
0000
,
1000
0000
0001
0000
1000
0000
0010
1000
,
0000
0000
0001
0100
0000
0010
0000
0000
,
0000
1000
0100
1000
0001
0000
0010
0000
,
1000
0000
0001
1000
0100
0010
0001
0000
,
1000
1000
0001
0000
0010
1000
0010
0000
,
0001
0100
0010
0000
0100
0000
0000
0001
,
0001
0000
1000
0000
0001
0000
0010
0001
,
0001
0010
0100
0010
0100
1000
0000
0000
,
1000
0000
0001
0000
0010
0000
0001
0000
,
0000
1000
0001
0000
0000
0010
0000
0000
,
0000
1000
0001
0000
0100
0000
0010
0000
,
0000
0000
0001
1000
0001
0100
0000
1000
,
0000
0000
0001
0000
0010
0100
1000
0001
,
0001
0000
0010
0000
0001
0100
0000
0001
,
1000
0000
0010
0000
1000
0000
0100
0000
,
0001
0000
1000
0100
1000
0010
0000
0000
,
1000
0000
0001
0000
1000
0000
0010
1000
,
0000
0000
1000
1000
0000
0100
0000
1000
,
0000
0000
1000
0000
0001
0100
0000
0001
,
0001
0000
1000
0100
1000
0010
0000
0000
,
0000
0000
0001
0000
0010
0100
1000
0001
,
0001
0000
0010
0000
0001
0100
0000
0001
,
1000
0000
0010
0000
1000
0000
0100
0000
,
0001
0000
1000
0100
1000
0010
0000
0000
,
0000
1000
0001
0000
0100
0000
0010
0000
,
0001
0000
0000
0000
0000
0000
0000
0000
,
0000
0000
0001
0000
0010
0100
0000
1000
,
1000
0000
0000
0000
0100
1000
0000
0000
,
0000
0001
0010
0000
0100
1000
0100
0000
,
0001
0000
0000
0010
0100
0010
0000
0000
,
1000
1000
0001
0000
0010
1000
0010
0000
,
0000
0001
1000
0100
0010
0000
0000
0001
,
1000
0000
0100
0000
1000
0100
1000
0000
,
1000
0000
0000
0001
0100
0100
0001
0000
,
0001
0000
0010
0000
0010
0000
0100
0010
,
0000
0000
1000
1000
0000
0100
0000
1000
,
0001
1000
0001
0000
1000
0010
1000
0000
,
0001
0000
1000
0000
0010
1000
0001
0000
,
0001
1000
0001
0000
1000
0000
0100
0000
,
0001
0100
0010
0000
0100
0000
0000
0001
,
0001
0000
1000
0000
0001
0000
0010
0001
,
0001
0000
1000
0100
1000
0010
0000
0000
,
1000
0000
0001
0000
1000
0000
0010
1000
,
0000
0000
1000
1000
0000
0100
0000
1000
,
0000
0000
1000
0000
0001
0100
0000
0001
,
0001
0000
1000
0100
1000
0010
0000
0000
,
0000
0000
0001
0000
0010
0100
1000
0001
,
0001
0000
0010
0000
0001
0100
0000
0001
,
1000
0000
0010
0000
1000
0000
0100
0000
,
0001
0000
1000
0100
1000
0010
0000
0000
,
1000
0000
0001
0000
1000
0000
0010
1000
,
0000
0000
1000
1000
0000
0100
0000
1000
,
0000
0000
1000
0000
0001
0100
0000
0001
,
0001
0000
1000
0100
1000
0010
0000
0000
,
0000
0000
0001
0000
0010
0100
1000
0001
,
0001
0000
0010
0000
0001
0100
0000
0001
,
1000
0000
0010
0000
1000
0000
0100
0000
,
0101
0000
0001
0100
0001
1000
0000
0000
,
1000
0000
0001
0000
1000
0000
0010
1000
,
0000
0000
1000
1000
0000
0100
0000
1000
,
1000
0000
0010
0000
1000
0000
0000
0000
,
0001
0000
1000
0100
1000
0010
0000
0000
,
0001
1000
0001
0000
1000
0000
0100
0000
,
0001
0000
0010
0000
0001
0100
0000
0001
,
1000
0000
0010
0000
1000
0000
0100
0000
,
0101
0000
0001
0100
0001
1000
0000
0000
,
1000
0000
0001
0000
1000
0000
0010
1000
,
0000
0000
1000
1000
0000
0100
0000
1000
,
1000
0000
0010
0000
1000
0000
0100
0000
,
0001
0000
1000
0100
1000
0010
0000
0000
,
0001
1000
0001
0000
1000
0000
0100
0000
,
0001
0000
0010
0000
0001
0100
0000
0001
,
1000
0000
0010
0000
1000
0000
0100
0000
,
0101
0000
0001
0100
0001
1000
0000
0000
,
1000
0000
0010
0000
1000
0000
0100
0000
,
0000
0000
0000
0000
1000
0100
0010
0000
,
1000
0000
0001
0000
0100
0010
0000
0000
,
0001
0000
0100
0010
1000
0010
0100
0000
,
0001
0000
0100
0000
1000
0100
0010
0000
,
0001
0000
0100
0010
1000
0010
0100
0000
,
1000
0000
0001
0000
0100
0010
0000
0000
,
0001
0000
0100
0010
1000
0010
0100
0000
,
1000
0001
1000
0000
1000
0010
0000
0000
,
0001
0000
0100
0010
1000
0010
0100
0000
,
1000
0000
0001
0000
0100
0010
0000
0000
,
0001
0000
0100
0010
1000
0010
0100
0000
,
1000
0000
0001
0000
0100
0010
0000
0000
,
0001
0000
0100
0010
1000
0010
0100
0000
,
1000
0000
0001
0000
0100
0010
0000
0000
,
0001
0000
0100
0010
1000
0010
0100
0000
,
1000
0001
1000
0000
1000
0010
0000
0000
,
0001
0000
0100
0010
1000
0010
0100
0000
,
1000
0000
0001
0000
0100
0010
0000
0000
,
0001
0000
0100
0000
0001
0000
0000
0000
,
0000
0000
0000
0000
0000
0000
0000
0000
,
0000
0000
0000
0000
0000
0000
0000
0000
,
0000
0000
0000
0000
0000
0000
0000
0000
,
0000
0000
0000
0000
0000
0000
0000
0000
,
0000
0000
0000
0000
0000
0000
0000
0000
,
0000
0000
0000
0000
0000
0000
0000
0000
,
0000
0000
0000
0000
0000
0000
0000
0000
,
0000
0000
0000
0000
0000
0000
0000
0000
,
0000
0000
0000
0000
0000
0000
0000
0000
,
0000
0000
0000
0000
0000
0000
0000
0000
,
;

//---------------dance-single - Heavy----------------
#NOTEDATA:;
#CHARTNAME:Heavy;
#STEPSTYPE:dance-single;
#DESCRIPTION:Heavy;
#CHARTSTYLE:;
#DIFFICULTY:Hard;
#METER:6;
#RADARVALUES:0.375536,0.397619,0.025196,0.000000,0.000000,626.000000,620.000000,6.000000,0.000000,0.000000,0.000000,0.000000,0.000000,0.000000,0.375536,0.397619,0.025196,0.000000,0.000000,626.000000,620.000000,6.000000,0.000000,0.000000,0.000000,0.000000,0.000000,0.000000;
#CREDIT:Heavy;
#NOTES:
0000
0000
0001
0000
0000
0000
0000
0000
,
0000
0000
1000
0000
0000
0000
0000
0000
,
1000
0100
1000
0000
0000
0100
0000
0000
,
0001
0000
0000
1000
0100
0010
0000
0000
,
1000
1000
0010
0000
1000
0000
0010
0000
,
0000
0000
1000
0000
0100
1000
0000
0010
,
0001
0000
0000
1000
0100
0010
0000
0000
,
0001
0000
0100
0000
0001
0000
1000
0010
,
0000
0000
1000
1000
0000
0010
0100
0001
,
0000
0000
1000
0000
0001
0010
0001
0010
,
0001
0000
0010
0001
1000
0001
0000
0100
,
0001
0000
1000
0000
0100
0010
0001
0010
,
0001
0000
1000
0000
0001
1000
0000
0001
,
0001
0000
0010
0000
0100
0000
1000
0000
,
1001
0000
0010
0100
0001
0100
0000
0000
,
0001
1000
0010
0000
0100
0000
0000
0000
,
0000
0001
0000
0000
0000
0010
0000
0001
,
0000
0001
1000
0000
0100
1000
0100
0000
,
0001
0000
0010
0001
1000
0001
0000
0100
,
0001
0100
0001
1000
0100
0000
0010
0000
,
0001
1000
0010
0000
0100
0001
0000
0010
,
0001
0000
1000
0000
0001
1000
0000
0000
,
1001
0000
0010
0100
0001
0100
0000
0000
,
1000
1000
0001
0000
0100
0000
0001
0010
,
0000
0000
1000
0001
0000
1000
0000
0001
,
0000
0001
0100
0001
0100
0000
0001
0000
,
0001
0000
0010
0000
0101
0000
0001
1000
,
0001
0001
0010
0001
0010
0001
0100
0000
,
0001
1000
0010
0000
0100
0001
0000
0010
,
0001
0010
0001
0000
1000
0000
0100
1000
,
1000
0100
1000
0010
1000
0010
1000
0000
,
0001
0000
0010
0000
0100
0000
1000
0001
,
0000
0001
0000
0000
0000
0010
0000
0001
,
0000
0001
0010
0000
0001
0010
0000
0100
,
0000
0001
0001
0010
0001
1000
0000
0010
,
0001
0000
1000
0000
0100
0010
0001
0010
,
0001
0000
1000
0000
0001
1000
0000
0001
,
0001
0000
0010
0000
0100
0000
1000
0000
,
0001
0000
0010
0001
1000
0001
0000
0100
,
1000
1000
0001
0000
0100
0000
0001
0010
,
0000
0000
1000
1000
0000
0010
0100
0001
,
0000
0000
1000
0000
0001
0010
0001
0010
,
0001
0000
0010
0001
1000
0001
0000
0100
,
0001
0000
1000
0000
0100
0010
0001
0010
,
0001
0000
1000
0000
0001
1000
0000
0001
,
0001
0000
0010
0000
0100
0000
1000
0000
,
0001
0000
0010
0001
1000
0001
0000
0100
,
0000
0001
0010
0000
0001
0010
0000
0100
,
1000
0000
1000
0000
0000
0000
0000
0000
,
0000
0000
1000
0000
0100
1000
0000
0010
,
0001
0000
0100
0000
0010
1000
0000
0000
,
0000
0001
1000
0000
0100
1000
0100
0000
,
0001
0000
0000
1000
0100
0010
0000
0000
,
0001
0001
0010
0001
0010
0001
0100
0000
,
0000
0001
0100
0001
0100
0000
0000
0001
,
1000
0000
0100
0010
0100
1000
0001
0000
,
0001
0100
0000
0001
0010
0010
0001
0000
,
1000
1000
0001
0000
0001
0000
0010
0001
,
0000
0000
1000
1000
0000
0010
0100
0001
,
1000
0001
0100
0000
0001
0010
0001
1000
,
1000
0000
0100
0010
0100
0010
0001
0000
,
0001
0100
0001
1000
0100
0000
0010
0000
,
0001
1000
0010
0000
0100
0001
0000
0010
,
0001
0010
0001
0000
1000
0000
0100
1000
,
0001
0000
0010
0001
1000
0001
0000
0100
,
1000
1000
0001
0000
0100
0000
0001
0010
,
0000
0000
1000
1000
0000
0010
0100
0001
,
0000
0000
1000
0000
0001
0010
0001
0010
,
0001
0000
0010
0001
1000
0001
0000
0100
,
0001
0000
1000
0000
0100
0010
0001
0010
,
0001
0000
1000
0000
0001
1000
0000
0001
,
0001
0000
0010
0000
0100
0000
1000
0000
,
0001
0000
0010
0001
1000
0001
0000
0100
,
1000
1000
0001
0000
0100
0000
0001
0010
,
0000
0000
1000
1000
0000
0010
0100
0001
,
0000
0000
1000
0000
0001
0010
0001
0010
,
0001
0000
0010
0001
1000
0001
0000
0100
,
0001
0000
1000
0000
0100
0010
0001
0010
,
0001
0000
1000
0000
0001
1000
0000
0001
,
0001
0000
0010
0000
0100
0000
1000
0000
,
1001
0000
0010
0100
0001
0100
0000
0000
,
1000
1000
0001
0000
0100
0000
0001
0010
,
0000
0000
1000
1000
0000
0010
0100
0001
,
0001
0000
0100
0000
0010
0000
0000
0000
,
0001
0000
0010
0001
1000
0001
0000
0100
,
0001
0100
0001
1000
0100
0000
0010
0000
,
0001
0000
1000
0000
0001
1000
0000
0001
,
0001
0000
0010
0000
0100
0000
1000
0000
,
1001
0000
0010
0100
0001
0100
0000
0000
,
1000
1000
0001
0000
0100
0000
0001
0010
,
0000
0000
1000
1000
0000
0010
0100
0001
,
0001
0000
0010
0000
0100
0000
1000
0000
,
0001
0000
0010
0001
1000
0001
0000
0100
,
0001
0100
0001
1000
0100
0000
0010
0000
,
0001
0000
1000
0000
0001
1000
0000
0001
,
0001
0000
0010
0000
0100
0000
1000
0000
,
1001
0000
0010
0100
0001
0100
0000
0000
,
0001
0000
0010
0000
0100
0000
1000
0000
,
0000
0000
0000
0000
1000
0010
0100
0010
,
0001
0000
1000
0000
0100
0010
1000
0000
,
1000
0000
0001
1000
0100
1000
0100
1000
,
1000
0000
0001
0000
0100
0010
1000
0100
,
1000
0000
0001
1000
0100
1000
0100
1000
,
0001
0000
1000
0000
0100
0010
1000
0000
,
1000
0000
0001
1000
0100
1000
0100
1000
,
1000
0100
1000
0010
0010
0100
0000
0000
,
1000
0000
0001
1000
0100
1000
0100
1000
,
0001
0000
1000
0000
0100
0010
1000
0000
,
1000
0000
0001
1000
0100
1000
0100
1000
,
0001
0000
1000
0000
0100
0010
1000
0000
,
1000
0000
0001
1000
0100
1000
0100
1000
,
0001
0000
1000
0000
0100
0010
1000
0000
,
1000
0000
0001
1000
0100
1000
0100
1000
,
1000
0100
1000
0010
0010
0100
0000
0000
,
1000
0000
0001
1000
0100
1000
0100
1000
,
0001
0000
1000
0000
0100
0010
1000
0000
,
1000
0000
0010
1000
0000
0010
0000
0000
,
0000
0000
0001
0000
0000
0000
0000
0000
,
0000
0000
0001
0000
0000
0000
0000
0000
,
0000
0000
1000
0000
0000
0000
0000
0000
,
0000
0000
0001
0000
0000
0000
0000
0000
,
0000
0000
0001
0000
0000
0000
0000
0000
,
0000
0000
0001
0000
0000
0000
0000
0000
,
0000
0000
0001
0000
0000
0000
0000
0000
,
0000
0000
0001
0000
0000
0000
0000
0000
,
0000
0000
1000
0000
0000
0000
0000
0000
,
0000
0000
1000
0000
0000
0000
0000
0000
,
;
