#VERSION:0.83;
#TITLE:Outlaw Star Op;
#SUBTITLE:;
#ARTIST:Crunchyroll;
#TITLETRANSLIT:;
#SUBTITLETRANSLIT:;
#ARTISTTRANSLIT:;
#GENRE:;
#ORIGIN:;
#CREDIT:Gorilla v1.1.3 (Dancing Monkeys v1.06);
#BANNER:;
#BACKGROUND:;
#PREVIEWVID:;
#JACKET:;
#CDIMAGE:;
#DISCIMAGE:;
#LYRICSPATH:;
#CDTITLE:;
#MUSIC:Outlaw Star - Official Clip - Opening Theme.mp3;
#OFFSET:-1.432540;
#SAMPLESTART:39.160431;
#SAMPLELENGTH:12.000000;
#SELECTABLE:YES;
#BPMS:0.000=159.034;
#STOPS:235.000=1.509;
#DELAYS:;
#WARPS:;
#TIMESIGNATURES:0.000=4=4;
#TICKCOUNTS:0.000=4;
#COMBOS:0.000=1;
#SPEEDS:0.000=1.000=0.000=0;
#SCROLLS:0.000=1.000;
#FAKES:;
#LABELS:0.000=Song Start;
#BGCHANGES:;
#KEYSOUNDS:;
#ATTACKS:
;

//---------------dance-single - Basic----------------
#NOTEDATA:;
#CHARTNAME:Basic;
#STEPSTYPE:dance-single;
#DESCRIPTION:Basic;
#CHARTSTYLE:;
#DIFFICULTY:Easy;
#METER:3;
#RADARVALUES:0.175662,0.229931,0.000000,0.069979,0.000000,123.000000,123.000000,0.000000,7.000000,0.000000,0.000000,0.000000,0.000000,0.000000,0.175662,0.229931,0.000000,0.069979,0.000000,123.000000,123.000000,0.000000,7.000000,0.000000,0.000000,0.000000,0.000000,0.000000;
#CREDIT:Basic;
#NOTES:
// measure 0
0000
0000
1000
0000
,  // measure 1
0010
0000
1000
0000
,  // measure 2
0010
0000
0001
0000
,  // measure 3
1000
0000
0010
0000
,  // measure 4
1000
0000
0010
0000
,  // measure 5
0001
0000
1000
0000
,  // measure 6
0010
0000
1000
0000
,  // measure 7
0010
0000
0001
0100
,  // measure 8
1000
0000
0001
1000
,  // measure 9
1000
0000
0001
0100
,  // measure 10
0000
0001
0001
1000
,  // measure 11
1000
0000
0100
0010
,  // measure 12
0000
0001
0000
0001
,  // measure 13
0001
0001
0001
0001
,  // measure 14
0001
0001
0000
1000
,  // measure 15
1000
2000
0000
0000
,  // measure 16
0000
0000
3000
0100
,  // measure 17
0020
0000
0000
0000
,  // measure 18
0030
0002
0000
0000
,  // measure 19
0000
0000
0003
1000
,  // measure 20
1000
0000
0001
0100
,  // measure 21
0000
0002
0000
0000
,  // measure 22
0000
0000
0003
0200
,  // measure 23
0000
0000
0000
0300
,  // measure 24
0000
0002
0000
0000
,  // measure 25
0000
0003
0000
0100
,  // measure 26
0000
0001
0000
0010
,  // measure 27
0000
1000
0000
0100
,  // measure 28
0000
0010
0000
0001
,  // measure 29
0000
1000
0000
0100
,  // measure 30
0000
1000
0000
0010
,  // measure 31
0000
1000
0000
0010
,  // measure 32
0000
0100
0000
1000
,  // measure 33
0000
0010
0000
1000
,  // measure 34
0000
0100
0000
0010
,  // measure 35
0000
0001
0000
0010
,  // measure 36
0000
1000
0000
0010
,  // measure 37
0000
1000
1000
1000
,  // measure 38
1000
1000
0000
0001
,  // measure 39
1000
0000
0001
0100
,  // measure 40
0000
1000
0100
0000
,  // measure 41
0001
0010
0000
0100
,  // measure 42
0001
0000
0010
0000
,  // measure 43
0000
0100
0100
0100
,  // measure 44
0000
1000
0000
0001
,  // measure 45
1000
0000
0010
0100
,  // measure 46
0000
1000
0100
0000
,  // measure 47
1000
0000
0001
0000
,  // measure 48
1000
0000
0001
0000
,  // measure 49
0000
1000
1000
1000
,  // measure 50
0000
0001
0000
0100
,  // measure 51
1000
0000
0001
0100
,  // measure 52
0000
1000
0001
1000
,  // measure 53
0001
0000
0010
0000
,  // measure 54
1000
0000
0001
0100
,  // measure 55
1000
0010
0000
0000
,  // measure 56
0001
1000
2000
0000
,  // measure 57
0000
0000
3000
0000
;
