#VERSION:0.83;
#TITLE:Out For Love;
#SUBTITLE:;
#ARTIST:Hazbin Hotel;
#TITLETRANSLIT:;
#SUBTITLETRANSLIT:;
#ARTISTTRANSLIT:;
#GENRE:;
#ORIGIN:;
#CREDIT:Gorilla v1.1.3 (Dancing Monkeys v1.06);
#BANNER:;
#BACKGROUND:;
#PREVIEWVID:;
#JACKET:;
#CDIMAGE:;
#DISCIMAGE:;
#LYRICSPATH:;
#CDTITLE:;
#MUSIC:Out For Love.mp3;
#OFFSET:-0.709070;
#SAMPLESTART:48.706802;
#SAMPLELENGTH:12.000000;
#SELECTABLE:YES;
#BPMS:0.000=125.006;
#STOPS:;
#DELAYS:;
#WARPS:;
#TIMESIGNATURES:0.000=4=4;
#TICKCOUNTS:0.000=4;
#COMBOS:0.000=1;
#SPEEDS:0.000=1.000=0.000=0;
#SCROLLS:0.000=1.000;
#FAKES:;
#LABELS:0.000=Song Start;
#BGCHANGES:;
#KEYSOUNDS:;
#ATTACKS:
;

//---------------dance-single - Basic----------------
#NOTEDATA:;
#CHARTNAME:Basic;
#STEPSTYPE:dance-single;
#DESCRIPTION:Basic;
#CHARTSTYLE:;
#DIFFICULTY:Easy;
#METER:3;
#RADARVALUES:0.208557,0.215253,0.000000,0.000000,0.000000,132.000000,132.000000,0.000000,0.000000,0.000000,0.000000,0.000000,0.000000,0.000000,0.208557,0.215253,0.000000,0.000000,0.000000,132.000000,132.000000,0.000000,0.000000,0.000000,0.000000,0.000000,0.000000,0.000000;
#CREDIT:Basic;
#NOTES:
// measure 0
0000
0000
0000
0000
,  // measure 1
0000
0000
0000
0001
,  // measure 2
1000
0001
0000
0100
,  // measure 3
0001
1000
0000
0100
,  // measure 4
1000
0000
0010
0100
,  // measure 5
0100
0000
1000
1000
,  // measure 6
1000
1000
0000
0100
,  // measure 7
0100
0001
0000
0100
,  // measure 8
0000
0001
0001
0100
,  // measure 9
0001
0000
1000
1000
,  // measure 10
1000
1000
0000
0100
,  // measure 11
0100
0001
0000
0100
,  // measure 12
0000
0001
0001
0100
,  // measure 13
0100
0000
0001
0001
,  // measure 14
0001
0010
0010
0010
,  // measure 15
1000
1000
0100
0001
,  // measure 16
0001
0001
0000
1000
,  // measure 17
1000
0001
0001
0010
,  // measure 18
0010
0010
0100
0100
,  // measure 19
1000
0000
0100
1000
,  // measure 20
0000
0001
1000
0100
,  // measure 21
1000
1000
0000
1000
,  // measure 22
1000
0001
0000
0100
,  // measure 23
0000
0001
1000
0100
,  // measure 24
0000
1000
0001
0100
,  // measure 25
0100
1000
0100
0010
,  // measure 26
1000
0000
0100
1000
,  // measure 27
1000
0001
0000
0100
,  // measure 28
0000
1000
1000
0001
,  // measure 29
0001
1000
0100
0010
,  // measure 30
0000
1000
0000
0001
,  // measure 31
0000
1000
0000
0001
,  // measure 32
0001
0001
0000
1000
,  // measure 33
0001
0000
0000
0001
,  // measure 34
0001
0010
0100
0010
,  // measure 35
1000
0100
0010
0100
,  // measure 36
0001
0010
0000
0001
,  // measure 37
1000
0001
0000
0010
,  // measure 38
0001
0010
0100
0010
,  // measure 39
1000
0001
0000
0100
,  // measure 40
1000
0000
0100
1000
,  // measure 41
0000
0001
1000
0100
,  // measure 42
0100
0100
0010
0100
,  // measure 43
0000
0001
0000
0000
;
