#TITLE:Ray J - One Wish;
#SUBTITLE:;
#ARTIST:Dancing Monkeys Project;
#TITLETRANSLIT:;
#SUBTITLETRANSLIT:;
#ARTISTTRANSLIT:;
#GENRE:;
#CREDIT:Gorilla v1.1.3 (Dancing Monkeys v1.06);
#BANNER:artworks-000056819353-mcsbdr-t500x500.jpg;
#BACKGROUND:41CBN7D1KSL.jpg;
#LYRICSPATH:;
#CDTITLE:;
#MUSIC:Ray J - One Wish.mp3;
#OFFSET:-3.112563;
#SAMPLESTART:65.625061;
#SAMPLELENGTH:12.000000;
#SELECTABLE:YES;
#BPMS:0.000000=95.981003
;
#STOPS:
;
#BGCHANGES:;
#KEYSOUNDS:;
#ATTACKS:;

//---------------dance-single - Basic----------------
#NOTES:
     dance-single:
     Basic:
     Easy:
     2:
     0.195358,0.189643,0.008313,0.016626,0.000000,329.000000,327.000000,2.000000,4.000000,0.000000,0.000000,0.195358,0.189643,0.008313,0.016626,0.000000,329.000000,327.000000,2.000000,4.000000,0.000000,0.000000:
// measure 0
2000
0000
0000
0000
,  // measure 1
3000
0020
0000
0000
,  // measure 2
0000
0000
0030
2000
,  // measure 3
0000
0000
0000
3000
,  // measure 4
0020
0000
0000
0030
,  // measure 5
0001
1000
0010
0100
,  // measure 6
1000
0010
0000
0100
,  // measure 7
0001
0100
0010
1000
,  // measure 8
0001
1000
0010
1000
,  // measure 9
1000
1000
0000
0000
,  // measure 10
0001
1000
0100
0010
,  // measure 11
1000
0100
1000
0001
,  // measure 12
1000
0000
0001
0100
,  // measure 13
1000
0100
1000
0010
,  // measure 14
0001
1000
0010
1000
,  // measure 15
1000
0000
0001
0100
,  // measure 16
0001
1000
0100
0010
,  // measure 17
1000
0100
1000
0001
,  // measure 18
1000
0000
0001
0100
,  // measure 19
0001
1000
0100
0010
,  // measure 20
0001
1000
0010
1000
,  // measure 21
1000
1000
0010
1000
,  // measure 22
0001
1000
0100
0100
,  // measure 23
1000
0010
1000
0001
,  // measure 24
1000
0000
0001
0100
,  // measure 25
0001
1000
0100
0010
,  // measure 26
0001
1000
0010
1000
,  // measure 27
1000
0000
0001
0100
,  // measure 28
0001
1000
0100
0010
,  // measure 29
0001
0010
0001
0100
,  // measure 30
1000
0000
0001
0100
,  // measure 31
0001
0100
0010
1000
,  // measure 32
0001
1000
0010
1000
,  // measure 33
1000
0000
0001
0100
,  // measure 34
0001
0010
0001
1000
,  // measure 35
0001
1000
0010
1000
,  // measure 36
1000
0000
0001
0100
,  // measure 37
0001
1000
0100
0010
,  // measure 38
0001
1000
0010
1000
,  // measure 39
1000
0000
0001
0100
,  // measure 40
0001
1000
0100
0010
,  // measure 41
1000
0001
0000
0010
,  // measure 42
1000
1000
0000
0000
,  // measure 43
1000
0100
0000
0000
,  // measure 44
0001
0010
0100
0010
,  // measure 45
1000
0000
0001
0100
,  // measure 46
0001
1000
0100
0010
,  // measure 47
1000
0100
1000
0001
,  // measure 48
1000
0010
0100
0010
,  // measure 49
1000
0100
1000
0010
,  // measure 50
0001
0100
0001
0100
,  // measure 51
0000
0000
0001
1000
,  // measure 52
0001
0010
0001
1000
,  // measure 53
1000
0100
1000
0001
,  // measure 54
0001
0100
0010
0001
,  // measure 55
0001
1000
0100
0010
,  // measure 56
0001
0010
0001
0100
,  // measure 57
0001
1000
0100
1000
,  // measure 58
0001
1000
0100
0100
,  // measure 59
1000
0010
0100
0001
,  // measure 60
0001
0100
0001
1000
,  // measure 61
0001
1000
0100
0010
,  // measure 62
0001
0010
0001
0101
,  // measure 63
1000
0010
1000
0010
,  // measure 64
0001
0010
0100
1000
,  // measure 65
1000
0010
0010
0100
,  // measure 66
1000
0010
1000
0010
,  // measure 67
1000
0001
1000
0010
,  // measure 68
0001
0010
0001
0101
,  // measure 69
1000
0010
0100
0010
,  // measure 70
0001
0010
0001
1000
,  // measure 71
0001
0010
0001
0100
,  // measure 72
1000
0000
0001
0100
,  // measure 73
0001
1000
0100
0010
,  // measure 74
0001
1000
0100
1000
,  // measure 75
0001
0100
0001
1000
,  // measure 76
1000
0100
0010
0100
,  // measure 77
0001
0100
0001
1000
,  // measure 78
1000
0001
1000
0010
,  // measure 79
0001
0100
0010
0001
,  // measure 80
1000
0100
1000
0001
,  // measure 81
0001
0100
0010
0001
,  // measure 82
0001
1000
0100
1000
,  // measure 83
1000
0010
0100
0001
,  // measure 84
0001
1000
0010
0100
,  // measure 85
1000
0001
1000
0100
,  // measure 86
1000
0100
1000
0001
,  // measure 87
0001
1000
0010
0100
,  // measure 88
0001
1000
0100
0010
,  // measure 89
0001
1000
1000
0001
,  // measure 90
1000
1000
0000
0000
,  // measure 91
1000
1000
0000
0000
;

//---------------dance-single - Standard----------------
#NOTES:
     dance-single:
     Standard:
     Medium:
     4:
     0.281458,0.328575,0.012470,0.000000,0.000000,474.000000,471.000000,3.000000,0.000000,0.000000,0.000000,0.281458,0.328575,0.012470,0.000000,0.000000,474.000000,471.000000,3.000000,0.000000,0.000000,0.000000:
0001
0000
0000
0000
0000
0000
0000
0000
,
0001
0000
0000
0000
0000
0000
0000
0000
,
0001
0000
0000
0000
0000
0000
0000
0000
,
0001
0000
0000
0000
0000
0000
0000
0000
,
1000
0000
0000
0000
0000
0000
0000
0000
,
0000
0000
0001
0100
0001
0000
1000
0100
,
1000
0000
0010
0000
0000
0001
0100
0000
,
1000
0000
0010
0100
0001
0000
0010
0000
,
0001
1000
0100
0000
1000
0000
0100
1000
,
0001
0000
0001
0000
0000
0000
0000
0000
,
0001
0000
0100
0010
0100
0010
1000
0000
,
0001
0100
0010
0100
0001
0010
0001
0100
,
1000
0000
0000
0000
0010
0000
1000
0000
,
0001
0000
1000
0100
0010
0001
0100
0000
,
0001
1000
0100
0000
1000
0000
0100
1000
,
1000
0000
0000
0000
0010
0000
1000
0000
,
1000
0000
0010
0010
0100
0000
0010
1000
,
0001
0100
0010
0100
0001
0010
0001
0100
,
1000
0000
0000
0000
0010
0000
1000
0000
,
0001
0000
0100
0010
0100
0010
1000
0000
,
0001
1000
0100
0000
1000
0000
0100
1000
,
1000
0100
0100
0010
0100
0010
0100
1000
,
1000
0100
1000
0010
1000
0000
1000
0000
,
0000
0001
0100
0000
0001
0000
1000
0010
,
1000
0000
0000
0000
0010
0000
1000
0000
,
0001
0000
0100
0010
0100
0010
1000
0000
,
0001
1000
0100
0000
1000
0000
0100
1000
,
1000
0000
0000
0000
0010
0000
1000
0000
,
0001
0000
0100
0010
0100
0010
1000
0000
,
1000
0100
0010
0000
0001
0000
0100
0001
,
1000
0000
0000
0000
0010
0000
1000
0000
,
1000
0000
0010
0100
0001
0000
0010
0000
,
0001
1000
0100
0000
1000
0000
0100
1000
,
1000
0000
0000
0000
0010
0000
1000
0000
,
1000
0000
0100
0010
1000
0000
0010
0000
,
0001
1000
0100
0000
1000
0000
0100
1000
,
1000
0000
0000
0000
0010
0000
1000
0000
,
0001
0000
0100
0010
0100
0010
1000
0000
,
0001
1000
0100
0000
1000
0000
0100
1000
,
1000
0000
0000
0000
0010
0000
1000
0000
,
0001
0000
0100
0010
0100
0010
1000
0000
,
0001
0000
1000
0000
0000
0000
0100
0000
,
0001
0000
0001
0000
0000
0000
0000
0000
,
0001
0000
0010
0000
0000
0000
0000
0000
,
1000
0001
1000
0000
0100
0000
1000
0001
,
1000
0000
0000
0000
0010
0000
1000
0000
,
0001
0000
0100
0010
0100
0010
1000
0000
,
0001
0100
0010
0100
0001
0010
0001
0100
,
1000
0000
0001
0000
0100
0001
0100
0000
,
0001
0000
1000
0100
0010
0001
0100
0000
,
0001
0001
0010
0000
0100
0000
1000
0000
,
0000
0000
0000
0000
0001
0000
0100
0000
,
1000
0000
0100
0010
1000
0000
0010
0000
,
0001
0100
0010
0100
0001
0010
0001
0100
,
1000
0000
0100
0000
1000
0001
1000
0000
,
1000
0000
0010
0010
0100
0000
0010
1000
,
1000
0100
0010
0000
0001
0000
0100
0001
,
0001
0000
0010
0000
0100
1000
0001
0010
,
1000
0100
1000
0010
1000
0000
1000
0000
,
0000
1000
0010
0100
0001
0000
0010
0100
,
1000
0000
0100
0000
0010
0000
0001
0100
,
1000
0000
0010
0010
0100
0000
0010
1000
,
1000
0100
0010
0001
0010
0000
1001
0000
,
0001
0000
0100
0000
0001
0100
0010
0100
,
0001
0000
0100
0001
1000
0010
1000
0000
,
1100
0000
0001
1000
1000
0000
0001
0010
,
0001
0000
0100
0000
0001
0100
0010
0100
,
0001
0000
0100
0010
0100
0001
0100
0000
,
1000
0100
0010
0001
0010
0000
1001
0000
,
1000
0000
0001
0000
0100
0001
0100
0000
,
1000
0000
0100
0010
1000
0000
0010
0000
,
1000
0100
0010
0000
0001
0000
0100
0001
,
1000
0000
0000
0000
0010
0000
1000
0000
,
0001
1000
0001
0010
1000
0010
0001
0000
,
0001
0000
0010
0000
0100
1000
0001
0010
,
1000
0000
0100
0000
0010
0000
0001
0100
,
0001
1000
0100
1000
0010
0100
0001
0010
,
0001
1000
0100
0001
0100
1000
0010
0010
,
0001
0000
0100
0010
0100
0001
0100
0000
,
1000
0000
0100
0000
1000
0001
1000
0000
,
0001
0100
0010
0100
0001
0010
0001
0100
,
1000
0000
0100
0000
1000
0001
1000
0000
,
0001
1000
0001
1000
0010
0000
0100
0000
,
1000
0010
1000
0001
0100
0000
0001
0100
,
1000
0000
0100
0000
0010
0000
0100
1000
,
1000
0000
0100
1000
0100
0001
0100
1000
,
0001
0100
0010
0100
0001
0010
0001
0100
,
1000
0000
0100
0000
0010
0000
0100
1000
,
1000
0000
0010
0010
0100
0000
0010
1000
,
0001
1000
0100
0000
0100
0000
0010
0001
,
0001
0000
0001
0000
0000
0000
0000
0000
,
0001
0000
0001
0000
0000
0000
0000
0000
,
0001
0000
0000
0000
0000
0000
0000
0000
,
0001
0000
0000
0000
0000
0000
0000
0000
,
;

//---------------dance-single - Heavy----------------
#NOTES:
     dance-single:
     Heavy:
     Hard:
     5:
     0.323023,0.328575,0.020783,0.000000,0.000000,544.000000,539.000000,5.000000,0.000000,0.000000,0.000000,0.323023,0.328575,0.020783,0.000000,0.000000,544.000000,539.000000,5.000000,0.000000,0.000000,0.000000:
1000
0000
0000
0000
0000
0000
0000
0000
,
1000
0000
0000
0000
0000
0000
0000
0000
,
1000
0000
0000
0000
0000
0000
0000
0000
,
1000
0000
0000
0000
0000
0000
0000
0000
,
1000
0000
0000
0000
0000
0000
0000
0000
,
0000
0001
0010
0100
0010
0000
0001
1000
,
0001
0000
0010
0000
0000
0100
1000
0000
,
1000
0000
0100
0010
0001
0100
0001
0000
,
0001
1000
0100
1000
0100
0000
0010
0001
,
1000
0000
1000
0000
0000
0010
0000
0000
,
0001
0000
0100
0001
0100
0001
1000
0010
,
1000
0100
1000
0010
1000
0010
0100
0010
,
1000
0000
0000
0000
0010
1000
0001
0000
,
1000
0000
0100
1000
0001
0010
0100
1000
,
0001
1000
0100
1000
0100
0000
0010
0001
,
1000
0000
0000
0000
0010
1000
0001
0000
,
1000
0000
0100
0100
1000
0100
1000
0100
,
1000
0100
1000
0010
1000
0010
0100
0010
,
1000
0000
0000
0000
0010
1000
0001
0000
,
0001
0000
0100
0001
0100
0001
1000
0010
,
0001
1000
0100
1000
0100
0000
0010
0001
,
0001
0000
0001
0000
0110
0000
0010
0100
,
1000
0100
0010
0001
0010
0100
0100
0000
,
0000
0001
0100
0001
0010
0000
0100
1000
,
1000
0000
0000
0000
0010
1000
0001
0000
,
0001
0000
0100
0001
0100
0001
1000
0010
,
0001
1000
0100
1000
0100
0000
0010
0001
,
1000
0000
0000
0000
0010
1000
0001
0000
,
0001
0000
0100
0001
0100
0001
1000
0010
,
0001
0010
0001
0100
0010
0000
0100
0001
,
1000
0000
0000
0000
0010
1000
0001
0000
,
1000
0000
0100
0010
0001
0100
0001
0000
,
0001
1000
0100
1000
0100
0000
0010
0001
,
1000
0000
0000
0000
0010
1000
0001
0000
,
1000
0000
0001
0100
0000
0010
1000
1000
,
0001
1000
0100
1000
0100
0000
0010
0001
,
1000
0000
0000
0000
0010
1000
0001
0000
,
0001
0000
0100
0001
0100
0001
1000
0010
,
0001
1000
0100
1000
0100
0000
0010
0001
,
1000
0000
0000
0000
0010
1000
0001
0000
,
0001
0000
0100
0001
0100
0001
1000
0010
,
1000
0000
0001
0000
1000
0000
0100
0000
,
1000
0000
1000
0000
0000
0010
0000
0000
,
1000
0000
0100
1000
0000
0000
0000
0000
,
0000
0001
1000
0001
1000
0001
1000
0010
,
1000
0000
0000
0000
0010
1000
0001
0000
,
0001
0000
0100
0001
0100
0001
1000
0010
,
1000
0100
1000
0010
1000
0010
0100
0010
,
0001
0000
0100
0001
0010
0001
0100
0000
,
1000
0000
0100
1000
0001
0010
0100
1000
,
0001
0001
0010
0000
0001
0000
1000
1000
,
0000
0000
0000
0000
1000
0001
0000
1000
,
1000
0000
0001
0100
0000
0010
1000
1000
,
1000
0100
1000
0010
1000
0010
0100
0010
,
1000
0000
0100
0000
0010
0100
0010
0001
,
1000
0000
0100
0100
1000
0100
1000
0100
,
0001
0010
0001
0100
0010
0000
0100
0001
,
0001
1000
0001
0000
0010
0001
0100
0001
,
1000
0100
0010
0001
0010
0100
0100
0000
,
1000
0001
0100
0001
0010
0001
0010
0001
,
1000
0000
0100
0000
1000
0010
1000
0010
,
1000
0000
0100
0100
1000
0100
1000
0100
,
1000
0001
1000
0100
0010
0000
1100
0000
,
0001
0000
1000
0100
0001
0100
1000
0100
,
1000
0000
0001
0000
1000
0010
1000
0000
,
0110
0000
0010
0001
0001
0100
0001
1000
,
0001
0000
1000
0100
0001
0100
1000
0100
,
0001
0000
1000
0001
0100
0010
1000
0000
,
1000
0001
1000
0100
0010
0000
1100
0000
,
0001
0000
0100
0001
0010
0001
0100
0000
,
1000
0000
0001
0100
0000
0010
1000
1000
,
0001
0010
0001
0100
0010
0000
0100
0001
,
1000
0000
0000
0000
0010
1000
0001
0000
,
1000
0001
0100
0001
0010
0001
0010
0001
,
0001
1000
0001
0000
0010
0001
0100
0001
,
1000
0000
0100
0000
1000
0010
1000
0010
,
0001
0010
0100
0010
0100
0010
0001
0010
,
1000
0100
0010
1000
0010
0100
0010
0010
,
0001
0000
1000
0001
0100
0010
1000
0000
,
1000
0000
0100
0000
0010
0100
0010
0001
,
1000
0100
1000
0010
1000
0010
0100
0010
,
1000
0000
0100
0000
0010
0100
0010
0001
,
0001
0010
0001
0010
0001
1000
0001
0001
,
0001
0100
0010
1000
0010
0100
0001
0010
,
0001
0000
0010
0000
0001
0010
0100
1000
,
0001
0100
0010
0100
0010
1000
0100
1000
,
1000
0100
1000
0010
1000
0010
0100
0010
,
0001
0000
0010
0000
0001
0010
0100
1000
,
1000
0000
0100
0100
1000
0100
1000
0000
,
1001
0000
0010
0100
0100
0000
1000
0010
,
1000
0000
1000
0000
0000
0010
0000
0000
,
1000
0000
1000
0000
0000
0100
0000
0000
,
1000
0000
0000
0000
0000
0000
0000
0000
,
1000
0000
0000
0000
0000
0000
0000
0000
,
;
