#TITLE:Ray J - One Wish (sped up);
#SUBTITLE:;
#ARTIST:Dancing Monkeys Project;
#TITLETRANSLIT:;
#SUBTITLETRANSLIT:;
#ARTISTTRANSLIT:;
#GENRE:;
#CREDIT:Gorilla v1.1.3 (Dancing Monkeys v1.06);
#BANNER:;
#BACKGROUND:;
#LYRICSPATH:;
#CDTITLE:;
#MUSIC:Ray J - One Wish (sped up).mp3;
#OFFSET:-1.123560;
#SAMPLESTART:41.747231;
#SAMPLELENGTH:12.000000;
#SELECTABLE:YES;
#BPMS:0.000000=153.605011
;
#STOPS:55.000000=1.562449,
123.000000=1.562449,
311.000000=1.562449
;
#BGCHANGES:;
#KEYSOUNDS:;
#ATTACKS:;

//---------------dance-single - Basic----------------
#NOTES:
     dance-single:
     Basic:
     Easy:
     4:
     0.276440,0.392660,0.079388,0.054579,0.000000,390.000000,374.000000,16.000000,11.000000,0.000000,0.000000,0.276440,0.392660,0.079388,0.054579,0.000000,390.000000,374.000000,16.000000,11.000000,0.000000,0.000000:
// measure 0
0000
0000
0220
0000
,  // measure 1
0000
0000
0000
0000
,  // measure 2
0330
2002
0000
0000
,  // measure 3
0000
0000
0000
0000
,  // measure 4
0000
0000
0000
3003
,  // measure 5
0220
0000
0000
0000
,  // measure 6
0330
2002
0000
0000
,  // measure 7
0000
0000
0000
3003
,  // measure 8
0220
0000
0000
0330
,  // measure 9
0001
0000
1001
0100
,  // measure 10
0001
1000
0000
0100
,  // measure 11
1001
0010
0001
0100
,  // measure 12
0001
0000
0100
0010
,  // measure 13
1000
0101
0001
0100
,  // measure 14
1100
1001
0011
0100
,  // measure 15
0001
0010
0001
0010
,  // measure 16
0001
1000
0100
0010
,  // measure 17
1001
0101
0001
1000
,  // measure 18
0001
1000
0100
0010
,  // measure 19
1000
0010
0001
0100
,  // measure 20
0001
1000
0100
0010
,  // measure 21
1000
0010
0001
1000
,  // measure 22
1000
0100
0001
0100
,  // measure 23
0001
1000
0100
0010
,  // measure 24
1000
0001
0010
0100
,  // measure 25
0001
0100
0001
1010
,  // measure 26
1000
0000
0001
0100
,  // measure 27
0001
0000
1000
0100
,  // measure 28
1000
0010
0100
0001
,  // measure 29
0001
1000
0010
1000
,  // measure 30
0001
1000
0001
0100
,  // measure 31
1010
0000
0001
0100
,  // measure 32
1000
0010
0001
1000
,  // measure 33
1000
0000
0001
0100
,  // measure 34
1000
0000
0001
0010
,  // measure 35
1000
0000
0001
0010
,  // measure 36
0000
0000
0001
1000
,  // measure 37
1000
0000
0001
0010
,  // measure 38
1000
0000
0001
0100
,  // measure 39
0001
0000
1000
0100
,  // measure 40
0000
0000
0001
1000
,  // measure 41
1000
0000
0001
0100
,  // measure 42
1000
0000
0001
0100
,  // measure 43
1000
0000
0001
0100
,  // measure 44
0000
0000
0001
1000
,  // measure 45
1000
0000
0001
0100
,  // measure 46
0001
0000
1000
0010
,  // measure 47
1000
0000
0001
0100
,  // measure 48
0000
0000
0001
1000
,  // measure 49
0001
0000
1000
0100
,  // measure 50
1000
0000
0001
0100
,  // measure 51
0001
0000
1000
0002
,  // measure 52
0000
0000
0000
1003
,  // measure 53
1000
0000
0001
0010
,  // measure 54
1000
0000
0001
0100
,  // measure 55
0000
0000
1000
0000
,  // measure 56
0000
0000
0000
1000
,  // measure 57
1000
0000
0001
0000
,  // measure 58
0000
1000
0000
0010
,  // measure 59
1000
0010
0100
0010
,  // measure 60
0000
0000
0001
1000
,  // measure 61
0001
0100
0010
1000
,  // measure 62
0001
1000
0100
0010
,  // measure 63
1000
0001
0010
0100
,  // measure 64
0000
1000
0000
0010
,  // measure 65
0001
1000
0100
0010
,  // measure 66
1000
0000
0001
0100
,  // measure 67
1000
0000
0001
0100
,  // measure 68
0000
0000
0001
1000
,  // measure 69
0000
1000
0010
1000
,  // measure 70
1000
0000
0100
1000
,  // measure 71
0001
1000
0100
0010
,  // measure 72
0000
1000
0010
1000
,  // measure 73
1000
0000
0001
0100
,  // measure 74
0001
0100
0010
1000
,  // measure 75
0001
0010
0001
0010
,  // measure 76
0001
1000
0010
1000
,  // measure 77
0001
1000
0001
0100
,  // measure 78
0001
0010
0001
0010
,  // measure 79
0000
1000
0010
1000
,  // measure 80
0001
0100
0010
1000
,  // measure 81
0001
1000
0100
0010
,  // measure 82
0000
1000
0010
0000
0100
0000
0001
0000
,  // measure 83
0000
1000
0010
1000
,  // measure 84
1000
0100
0010
1000
,  // measure 85
1000
0010
1000
0010
,  // measure 86
0001
0000
0010
0100
,  // measure 87
0000
1000
0010
1000
,  // measure 88
0001
0000
0100
0010
,  // measure 89
0001
0100
0010
1000
,  // measure 90
0000
1000
0010
0000
0100
0000
0001
0000
,  // measure 91
0000
1000
0001
0010
,  // measure 92
1000
0000
0001
0100
,  // measure 93
1000
0000
0001
0100
,  // measure 94
1000
0000
0001
0010
,  // measure 95
0000
0000
0001
1000
,  // measure 96
1000
0001
0001
0010
,  // measure 97
0001
0000
0100
0010
,  // measure 98
1000
1000
0100
0001
,  // measure 99
0000
0000
1000
0001
,  // measure 100
0001
0010
1000
0000
0010
0000
0011
0000
,  // measure 101
0001
1000
0010
0100
,  // measure 102
0001
1000
0010
0100
,  // measure 103
1000
0010
1000
0010
,  // measure 104
1000
0000
0001
0100
,  // measure 105
1000
1000
1000
0000
0010
0000
0100
0000
,  // measure 106
0001
1000
0100
0010
,  // measure 107
0000
0001
1000
0010
,  // measure 108
0001
1000
0100
0010
,  // measure 109
0001
0100
0010
1000
,  // measure 110
1000
0010
0100
0001
,  // measure 111
0000
0001
1000
0010
,  // measure 112
0001
1000
0100
0010
,  // measure 113
0001
0100
0010
1000
,  // measure 114
0001
1000
0100
0010
,  // measure 115
0000
0000
0001
1000
,  // measure 116
0001
0100
0010
1000
,  // measure 117
1000
1000
0100
0001
,  // measure 118
1000
0000
0001
0100
,  // measure 119
0000
0000
0000
1000
,  // measure 120
0000
0000
0000
1000
,  // measure 121
0000
0000
0000
0001
;

//---------------dance-single - Standard----------------
#NOTES:
     dance-single:
     Standard:
     Medium:
     6:
     0.351575,0.429811,0.024809,0.000000,0.000000,496.000000,491.000000,5.000000,0.000000,0.000000,0.000000,0.351575,0.429811,0.024809,0.000000,0.000000,496.000000,491.000000,5.000000,0.000000,0.000000,0.000000:
0000
0000
0000
0000
0000
0000
1000
0000
,
0000
0000
0000
0000
0000
0000
1000
0000
,
0000
0000
0000
0000
0000
0000
1000
0000
,
0000
0000
0000
0000
0000
0000
1000
0000
,
0000
0000
0000
0000
0000
0000
1000
0000
,
0000
0000
0000
0000
0000
0000
1000
0000
,
0000
0000
0000
0000
0000
0000
1000
0000
,
0000
0000
0000
0000
0000
0000
1000
0000
,
0000
0000
0000
0000
0000
0000
0001
0000
,
1000
0100
0000
0000
0010
0000
0001
0000
,
0001
0000
1000
0000
0000
0000
0010
0000
,
1000
0001
0000
0000
1000
0000
0010
0000
,
0001
0100
0001
0000
0100
0000
0001
0000
,
1000
0001
0000
0000
1000
0000
0010
0000
,
1000
0010
0000
0000
0100
0000
0001
0000
,
1000
0010
0000
0000
0100
0010
1000
0000
,
1000
0001
0100
0000
0001
0000
0010
0000
,
0000
0000
1000
0000
0100
0000
0010
0000
,
1000
0001
0100
0000
0001
0000
0010
0000
,
1000
0001
0000
0000
1000
0000
0010
0000
,
1000
0001
0100
0000
0001
0000
0010
0000
,
0000
0000
1000
0000
0100
0000
0010
0000
,
1000
0001
0000
0000
1000
0000
0010
0000
,
1000
0001
0100
0000
0001
0000
0010
0000
,
1000
0001
0100
0000
0001
0000
0010
0000
,
0000
0000
1000
0000
0100
0000
0010
0000
,
1000
0001
0000
0000
1000
0000
0010
0000
,
0001
1000
0000
0000
0001
0000
0100
0000
,
0001
1000
0100
0000
1001
0000
0001
0000
,
1000
0000
0000
0000
0001
0100
0010
1000
,
0001
0100
0001
0001
1000
0100
1000
0000
,
1000
0010
0000
0000
0100
0000
0001
0000
,
0000
0000
1000
0000
0100
0000
0010
0000
,
1000
0001
0000
0000
1000
0000
0010
0000
,
0001
1000
0000
0000
0001
0000
0010
0000
,
0001
1000
0000
0000
0001
0000
0010
0000
,
0000
0000
1000
0000
0100
0000
0010
0000
,
0001
0100
0000
0000
0001
0000
0100
0000
,
1000
0001
0000
0000
1000
0000
0010
0000
,
1000
0001
0000
0000
1000
0000
0010
0000
,
0000
0000
1000
0000
0100
0000
0010
0000
,
1000
0010
0000
0000
0100
0000
0001
0000
,
1000
0001
0000
0000
1000
0000
0010
0000
,
1000
0010
0000
0000
0100
0000
0001
0000
,
0000
0000
1000
0000
0100
0000
0010
0000
,
1000
0001
0000
0000
1000
0000
0010
0000
,
0001
1000
0000
0000
0001
0000
0100
0000
,
1000
0010
0000
0000
0100
0000
0001
0000
,
0000
0000
1000
0000
0100
0000
0010
0000
,
1000
0100
0000
0000
0010
0000
0001
0000
,
1000
0001
0000
0000
1000
0000
0010
0000
,
1000
0001
0000
0000
1000
0000
2000
0000
,
0000
0000
1000
0000
0000
0000
3010
0000
,
0001
0100
0000
0000
0001
0000
0100
0000
,
0001
0010
0000
0000
0001
0000
0010
0000
,
0000
0000
0000
0000
0000
0000
0000
1000
,
0000
0000
0000
0000
0001
0000
0100
0000
,
0001
0000
0000
0000
1000
0000
0000
0000
,
0000
0000
0001
0000
0000
1000
0010
0000
,
1000
0100
0010
0000
0001
0000
0010
0000
,
0000
0000
1000
0000
0100
0000
0010
0000
,
0001
1000
0100
0000
0010
0000
0100
0000
,
1000
0001
0100
0000
0001
0000
0010
0000
,
0001
1000
0100
0000
1000
0000
0010
0000
,
0000
0000
0001
0000
0000
1000
0010
0000
,
1000
0001
0100
0000
0001
0000
0010
0000
,
1000
0001
0000
0000
1000
0000
0010
0000
,
1000
0010
0000
0000
0100
0000
0001
0000
,
0000
0000
0000
0000
0000
0000
0001
0100
,
0000
1000
0010
0000
0100
0000
0001
0000
,
1000
0000
0000
0010
0100
0000
0001
0000
,
1000
0001
0100
0000
0001
0000
0010
0000
,
0000
0000
0001
0000
0100
0000
0010
0100
,
1000
0001
0000
0000
1000
0000
0010
0000
,
0001
1000
0100
0000
0010
0000
0100
0000
,
1000
0010
0000
0000
0100
0010
1000
0000
,
1000
0000
0000
0000
0001
0100
0010
1000
,
0001
0100
0001
0001
1000
0100
1000
0000
,
1000
0010
0000
0000
0100
0010
1000
0000
,
0000
0000
0001
0000
0100
0000
0010
0100
,
0001
1000
0100
0000
0010
0000
0100
0000
,
1000
0001
0100
0000
0001
0000
0010
0000
,
0000
1000
0100
0000
1100
0000
0100
0001
,
0000
0000
0001
0000
0100
0000
0010
0100
,
0001
0100
0001
0001
0100
0000
0001
0000
,
0000
1000
0010
1000
0100
0010
0001
0000
,
1000
0010
0000
0000
1000
0000
0110
0000
,
0000
0000
0001
0000
0100
0000
0010
0100
,
0001
0100
0001
0000
0100
0000
0001
0000
,
0001
1000
0100
0000
0010
0000
0100
0000
,
0000
1000
0100
0000
1100
0000
0100
0001
,
0000
0000
1000
0001
1000
0000
0001
0000
,
1000
0001
0000
0000
1000
0000
0010
0000
,
1000
0001
0000
0000
1000
0000
0010
0000
,
1000
0001
0000
0000
1000
0000
0010
0000
,
0000
0000
1000
0000
0100
0000
0010
0000
,
0000
0001
0010
0100
0100
0000
0010
0001
,
0001
0100
0001
0000
0100
0000
0001
0000
,
0000
0001
0001
1000
0100
1000
0010
0000
,
1000
0000
0000
0000
0001
0000
0100
0000
,
0001
1000
0100
1000
0010
0000
0110
0000
,
0001
0100
0001
0000
0100
0000
0010
0100
,
0001
0010
0001
0000
0010
0000
0100
0010
,
0000
1000
0010
1000
0100
0010
0001
0000
,
1000
0001
0000
0000
1000
0000
0010
0000
,
0001
0001
0001
0010
0100
0000
1000
0000
,
1000
0001
0100
0000
0001
0000
0010
0000
,
0000
0000
1000
0000
0100
0010
0001
0000
,
1000
0001
0100
0000
0001
0000
0010
0000
,
0001
1000
0100
0000
0010
0000
0100
0000
,
0001
1000
0010
0000
0100
0000
0010
0000
,
0000
0000
1000
0000
0100
0010
0001
0000
,
1000
0001
0100
0000
0001
0000
0010
0000
,
0001
1000
0010
0000
1000
0001
1000
0000
,
1000
0001
0100
0000
0001
0000
0010
0000
,
0000
0000
1000
0000
0100
0000
0010
0000
,
0001
1000
0100
0000
0010
0000
0100
0000
,
0000
0001
0001
1000
0100
1000
0010
0000
,
1000
0001
0000
0000
1000
0000
0010
0000
,
0000
0000
0000
0000
0001
0000
0100
0000
,
0000
0000
0000
0000
0001
0000
0100
0000
,
0000
0000
0000
0000
0001
0000
0100
0000
,
0000
0000
0000
0000
0000
0000
1000
0000
,
0000
0000
0000
0000
0000
0000
1000
0000
,
;

//---------------dance-single - Heavy----------------
#NOTES:
     dance-single:
     Heavy:
     Hard:
     8:
     0.454354,0.491213,0.079388,0.004962,0.000000,641.000000,625.000000,16.000000,1.000000,0.000000,0.000000,0.454354,0.491213,0.079388,0.004962,0.000000,641.000000,625.000000,16.000000,1.000000,0.000000,0.000000:
0000
0000
0000
0000
0000
0000
1000
0000
,
0000
0000
0000
0000
0000
0000
0001
0000
,
0000
0000
0000
0000
0000
0000
1000
0000
,
0000
0000
0000
0000
0000
0000
1000
0000
,
0000
0000
0000
0000
0000
0000
1000
0000
,
0000
0000
0000
0000
0000
0000
0001
0000
,
0000
0000
0000
0000
0000
0000
1000
0000
,
0000
0000
0000
0000
0000
0000
1000
0000
,
0000
0000
0000
0000
0000
0000
1000
0000
,
1000
0010
0000
1000
0001
1000
0001
0000
,
1000
0010
0100
0000
0000
0000
0001
0000
,
1000
0001
0010
0000
0001
0000
0010
0000
,
1000
0100
0001
0000
0100
0000
1000
0100
,
1000
0001
0010
0000
0001
0000
0010
0000
,
1000
0001
0000
0000
0010
0001
0100
0000
,
1000
0001
1000
1000
0100
0010
0100
1000
,
0001
0100
0010
0010
0100
0001
1000
0000
,
0000
0000
0001
0000
0100
0100
0010
0000
,
0001
0100
0010
0010
0100
0001
1000
0000
,
1000
0001
0010
0000
0001
0000
0010
0000
,
0001
0100
0010
0010
0100
0001
1000
0000
,
0000
0000
0001
0000
0100
0100
0010
0000
,
1000
0001
0010
0000
0001
0000
0010
0000
,
0001
0100
0010
0010
0100
0001
1000
0000
,
1000
0100
0010
0010
0100
1000
0001
0000
,
0000
0000
0001
0000
0100
0100
0010
0000
,
1000
0001
0010
0000
0001
0000
0010
0000
,
1000
0001
0100
0000
0001
0000
0100
0000
,
0001
1000
0100
0000
1010
0000
1000
0001
,
0001
0100
0001
0000
0010
0100
1000
0100
,
0000
0001
0010
0010
0001
0000
1010
0000
,
1000
0001
0000
0000
0010
0001
0100
0000
,
0000
0000
0001
0000
0100
0100
0010
0000
,
1000
0001
0010
0000
0001
0000
0010
0000
,
0001
1000
0010
0000
1000
0000
0010
0000
,
0001
1000
0100
0000
1000
0000
0100
0000
,
0000
0000
0001
0000
0100
0100
0010
0000
,
0001
1000
0000
0000
0100
1000
0010
0000
,
1000
0001
0010
0000
0001
0000
0010
0000
,
0001
1000
0010
0000
1000
0000
0010
0000
,
0000
0000
0001
0000
0100
0100
0010
0000
,
1000
0001
0000
0000
0010
0001
0100
0000
,
1000
0001
0010
0000
0001
0000
0010
0000
,
1000
0001
0000
0000
0010
0001
0100
0000
,
0000
0000
0001
0000
0100
0100
0010
0000
,
1000
0001
0010
0000
0001
0000
0010
0000
,
1000
0001
0010
0000
0001
0000
0010
0000
,
1000
0001
0000
0000
0010
0001
0100
0000
,
0000
0000
0001
0000
0100
0100
0010
0000
,
1000
0010
0000
1000
0001
1000
0001
0000
,
1000
0001
0010
0000
0001
0000
0010
0000
,
1000
0001
0100
0000
0001
0000
2000
0000
,
0000
0000
0001
0000
0100
0000
3010
0000
,
0001
1000
0000
0000
0100
1000
0010
0000
,
1000
0001
0000
0000
0010
0001
0100
0000
,
0000
0000
0000
0000
1000
0000
0000
0010
,
0000
0000
0000
0000
0001
0000
1000
0000
,
0001
0000
0000
0000
0010
0010
0000
0000
,
0001
0000
1000
0000
0100
1000
0100
0000
,
0001
0010
0100
0001
0100
0000
0101
0000
,
0000
0000
0001
0000
0100
0100
0010
0000
,
0001
0010
0001
0010
0100
1000
0010
0000
,
0001
0100
0010
0010
0100
0001
1000
0000
,
0001
0100
0010
0010
0100
0001
1000
0000
,
0001
0000
1000
0000
0100
1000
0100
0000
,
0001
0100
0010
0010
0100
0001
1000
0000
,
1000
0001
0010
0000
0001
0000
0010
0000
,
1000
0001
0000
0000
0010
0001
0100
0000
,
0000
0000
0000
0000
1000
0000
0010
0100
,
0001
0010
0001
0010
0001
0000
0010
0000
,
1000
0100
0000
0010
0100
0000
0010
0001
,
0001
0100
0010
0010
0100
0001
1000
0000
,
0000
0001
0100
0000
0010
0000
0101
0000
,
1000
0001
0010
0000
0001
0000
0010
0000
,
0001
0010
0001
0010
0100
1000
0010
0000
,
1000
0001
1000
1000
0100
0010
0100
1000
,
0001
0100
0001
0000
0010
0100
1000
0100
,
0000
0001
0010
0010
0001
0000
1010
0000
,
1000
0001
1000
1000
0100
0010
0100
1000
,
0000
0001
0100
0000
0010
0000
0101
0000
,
0001
0010
0001
0010
0100
1000
0010
0000
,
0001
0100
0010
0010
0100
0001
1000
0000
,
0000
0001
0010
0000
1001
0000
1000
0100
,
0000
0001
0100
0000
0010
0000
0101
0000
,
0001
0010
0001
0000
0110
0000
1000
0010
,
1000
0001
0010
0100
0010
0001
0010
0100
,
1000
0001
0000
0000
0010
0000
1010
0000
,
0000
0001
0100
0000
0010
0000
0101
0000
,
1000
0100
0001
0000
0100
0000
1000
0100
,
0001
0010
0001
0010
0100
1000
0010
0000
,
0000
0001
0010
0000
1001
0000
1000
0100
,
0001
0000
1000
0100
1000
0010
0100
0000
,
1000
0001
0010
0000
0001
0000
0010
0000
,
0001
1000
0010
0000
1000
0000
0010
0000
,
1000
0001
0010
0000
0001
0000
0010
0000
,
0000
0000
0001
0000
0100
0100
0010
0000
,
0001
0010
0001
0010
0010
0100
0010
0001
,
1000
0100
0001
0000
0100
0000
1000
0100
,
1000
0010
0010
0000
0110
0000
0100
1000
,
0001
1000
0000
0000
0100
0000
1000
0000
,
0001
0010
0001
0010
0001
0000
0110
0000
,
1000
0100
0010
0000
0001
0010
0100
1000
,
0001
0010
0100
0000
1000
0100
0010
0001
,
1000
0001
0010
0100
0010
0001
0010
0100
,
1000
0001
0010
0000
0001
0000
0010
0000
,
1000
1000
1000
0000
0101
0000
0010
0001
,
0001
0100
0010
0010
0100
0001
1000
0000
,
0000
1000
0001
0010
0001
0100
0001
0000
,
0001
0100
0010
0010
0100
0001
1000
0000
,
0001
0010
0001
0010
0100
1000
0010
0000
,
0001
0100
0001
0100
0010
1000
0100
0000
,
0000
1000
0001
0010
0001
0100
0001
0000
,
0001
0100
0010
0010
0100
0001
1000
0000
,
1000
0100
1000
0010
1000
0100
1000
0100
,
0001
0100
0010
0010
0100
0001
1000
0000
,
0000
0000
0001
0000
0100
0100
0010
0000
,
0001
0010
0001
0010
0100
1000
0010
0000
,
1000
0010
0010
0000
0110
0000
0100
1000
,
1000
0001
0010
0000
0001
0000
0010
0000
,
0000
0000
0000
0000
0001
0000
1000
0000
,
0000
0000
0000
0000
1000
0000
0001
0000
,
0000
0000
0000
0000
0001
0000
1000
0000
,
0000
0000
0000
0000
0000
0000
1000
0000
,
0000
0000
0000
0000
0000
0000
0001
0000
,
;
