#VERSION:0.83;
#TITLE:onlymp3.to - one_piece___opening_21___super_powers-t7xHamn5inQ-192k-1708064322;
#SUBTITLE:;
#ARTIST:Dancing Monkeys Project;
#TITLETRANSLIT:;
#SUBTITLETRANSLIT:;
#ARTISTTRANSLIT:;
#GENRE:;
#ORIGIN:;
#CREDIT:Gorilla v1.1.3 (Dancing Monkeys v1.06);
#BANNER:drawing_luffy_vs_katakuri___one_piece__by_loloow_ddg4kxz-fullview.png;
#BACKGROUND:monkey_d__luffy_vs_charlotte_katakuri_by_melon.png;
#PREVIEWVID:;
#JACKET:;
#CDIMAGE:;
#DISCIMAGE:;
#LYRICSPATH:;
#CDTITLE:;
#MUSIC:onlymp3.to - one_piece___opening_21___super_powers-t7xHamn5inQ-192k-1708064322.mp3;
#OFFSET:-0.060229;
#SAMPLESTART:34.151894;
#SAMPLELENGTH:12.000000;
#SELECTABLE:YES;
#BPMS:0.000=175.996;
#STOPS:;
#DELAYS:;
#WARPS:;
#TIMESIGNATURES:0.000=4=4;
#TICKCOUNTS:0.000=4;
#COMBOS:0.000=1;
#SPEEDS:0.000=2.600=0.000=0;
#SCROLLS:0.000=1.000;
#FAKES:;
#LABELS:0.000=Song Start;
#BGCHANGES:;
#KEYSOUNDS:;
#ATTACKS:
;

//---------------dance-single - Basic----------------
#NOTEDATA:;
#CHARTNAME:Basic;
#STEPSTYPE:dance-single;
#DESCRIPTION:Basic;
#CHARTSTYLE:;
#DIFFICULTY:Easy;
#METER:4;
#RADARVALUES:0.322582,0.360526,0.006661,0.099915,0.000000,339.000000,338.000000,1.000000,15.000000,0.000000,0.000000,0.000000,0.000000,0.000000,0.322582,0.360526,0.006661,0.099915,0.000000,339.000000,338.000000,1.000000,15.000000,0.000000,0.000000,0.000000,0.000000,0.000000;
#CREDIT:Basic;
#NOTES:
// measure 0
0000
0000
0000
1000
,  // measure 1
0000
0000
0000
1000
,  // measure 2
0000
0001
0000
1000
,  // measure 3
0000
0001
1000
0000
,  // measure 4
1000
1000
0000
0010
,  // measure 5
1000
0001
0000
0100
,  // measure 6
0001
1000
0000
0010
,  // measure 7
0000
0001
1000
0000
,  // measure 8
1000
1000
0000
0010
,  // measure 9
1000
0001
0000
0100
,  // measure 10
0110
0001
1000
0001
,  // measure 11
0100
0010
1000
0010
,  // measure 12
0001
0100
0001
0100
,  // measure 13
0010
0001
0100
1000
,  // measure 14
0001
0100
0010
0001
,  // measure 15
1000
0010
1000
0001
,  // measure 16
0010
1000
0001
0100
,  // measure 17
0001
1000
0100
1000
,  // measure 18
0010
0001
1000
1000
,  // measure 19
0001
1000
0001
0100
,  // measure 20
0100
0001
0010
0100
,  // measure 21
1000
0100
0001
0010
,  // measure 22
1000
0100
0001
1000
,  // measure 23
0010
0001
0001
1000
,  // measure 24
0001
1000
0100
0010
,  // measure 25
1000
0001
1000
0010
,  // measure 26
0010
0001
0001
1000
,  // measure 27
1000
0001
0001
1000
,  // measure 28
1000
0010
1000
1000
,  // measure 29
0001
0001
0010
1000
,  // measure 30
1000
0100
0100
1000
,  // measure 31
0001
0010
0100
0001
,  // measure 32
1000
0100
0001
1000
,  // measure 33
0010
0001
1000
0100
,  // measure 34
0010
0001
0001
1000
,  // measure 35
0001
1000
0001
0010
,  // measure 36
0001
2000
0000
0000
,  // measure 37
0000
0000
0000
3001
,  // measure 38
1000
0010
0100
0001
,  // measure 39
0010
0001
1000
0010
,  // measure 40
0001
0100
0010
0001
,  // measure 41
1000
0010
0100
0001
,  // measure 42
0010
1000
0100
0001
,  // measure 43
1000
0001
0100
0100
,  // measure 44
1000
1000
0001
0010
,  // measure 45
1000
0001
1000
0100
,  // measure 46
1000
0100
0010
0001
,  // measure 47
0001
0100
0010
1000
,  // measure 48
1000
0001
0010
0100
,  // measure 49
1000
0100
0010
0001
,  // measure 50
1000
1000
0001
0001
,  // measure 51
1000
0001
0000
0100
,  // measure 52
1000
1000
0000
0010
,  // measure 53
1000
1000
0001
0001
,  // measure 54
0001
2000
0000
3000
,  // measure 55
0001
0000
0001
0000
,  // measure 56
0001
0000
1000
0001
,  // measure 57
1000
0001
1000
0001
,  // measure 58
0010
0100
0001
0100
,  // measure 59
0001
1000
0001
0010
,  // measure 60
0100
0001
2000
0000
,  // measure 61
3002
0000
2003
0000
,  // measure 62
3000
0001
1000
0000
,  // measure 63
0001
0000
0001
0000
,  // measure 64
1000
0000
0001
0010
,  // measure 65
0001
0000
0001
0000
,  // measure 66
1000
0000
2000
0010
,  // measure 67
0000
0000
3000
0001
,  // measure 68
0000
0000
0001
0010
,  // measure 69
0001
0000
0001
0000
,  // measure 70
0001
0000
0001
0000
,  // measure 71
0000
0000
1000
0100
,  // measure 72
0000
0001
0000
1000
,  // measure 73
1000
0000
0002
0000
,  // measure 74
0003
0020
0000
2030
,  // measure 75
0000
3020
0000
0030
,  // measure 76
0000
0000
0100
1000
,  // measure 77
0001
0010
0100
1000
,  // measure 78
0010
0001
1000
0100
,  // measure 79
0001
1000
0100
0010
,  // measure 80
1000
0001
1000
0100
,  // measure 81
0001
0002
0000
1000
,  // measure 82
0000
1003
0001
0001
,  // measure 83
1000
0001
0000
0100
,  // measure 84
1000
0001
0000
0100
,  // measure 85
0001
0000
1000
0010
,  // measure 86
1000
0001
0000
0100
,  // measure 87
1000
0001
1000
0010
,  // measure 88
0001
0000
0001
0000
,  // measure 89
1000
0001
0000
0100
,  // measure 90
1000
0001
0000
0100
,  // measure 91
1000
1000
0000
0010
,  // measure 92
1000
0100
0000
1000
,  // measure 93
1000
0001
0000
0100
,  // measure 94
1000
0001
0000
0010
,  // measure 95
0001
0000
1000
0010
,  // measure 96
1000
0001
0000
0100
,  // measure 97
0001
1000
0000
0010
,  // measure 98
0000
0001
0001
1000
,  // measure 99
1000
1000
0000
0010
,  // measure 100
0000
0001
0010
0100
,  // measure 101
1000
0010
0100
0001
,  // measure 102
0000
0001
0010
0100
,  // measure 103
1000
1000
0000
0010
,  // measure 104
1000
0200
0000
0000
,  // measure 105
0302
0000
0000
0003
,  // measure 106
2000
0000
0000
3000
,  // measure 107
0100
0002
0000
0000
,  // measure 108
0000
0003
0000
0000
;

//---------------dance-single - Standard----------------
#NOTEDATA:;
#CHARTNAME:Standard;
#STEPSTYPE:dance-single;
#DESCRIPTION:Standard;
#CHARTSTYLE:;
#DIFFICULTY:Medium;
#METER:5;
#RADARVALUES:0.316872,0.381924,0.046627,0.019983,0.000000,333.000000,326.000000,7.000000,3.000000,0.000000,0.000000,0.000000,0.000000,0.000000,0.316872,0.381924,0.046627,0.019983,0.000000,333.000000,326.000000,7.000000,3.000000,0.000000,0.000000,0.000000,0.000000,0.000000;
#CREDIT:Standard;
#NOTES:
0000
0000
0000
0000
0000
0000
1000
0000
,
0000
0000
0000
0000
0000
0000
0001
0000
,
0000
0000
1000
0000
0000
0000
0001
0000
,
0000
0000
1000
0000
0001
0000
0000
0000
,
1000
0000
1000
0000
0000
0000
0100
0000
,
1000
0000
0100
0000
1000
0000
0100
0000
,
0001
0000
1000
0000
0000
0000
0001
0000
,
0000
0000
1000
0000
0001
0000
0000
0000
,
1000
0000
1000
0000
0000
0000
0100
0000
,
1000
0000
0100
0000
1000
0000
0100
0000
,
1010
0000
0100
0000
0010
0000
0010
0000
,
0001
0000
0001
0000
0100
0000
0100
0000
,
1000
0000
0001
0000
0010
0000
0100
0000
,
1010
0000
0100
0000
0010
0000
0010
0000
,
1000
0001
1000
0000
0010
0000
1000
0000
,
0001
0000
0100
0000
0001
0000
0010
0000
,
1000
0000
0001
0000
0010
0000
0100
0000
,
0110
0000
0001
0000
0100
0000
0001
0000
,
1010
0000
0100
0000
0010
0000
0010
0000
,
0001
0000
0000
0000
0001
0000
0000
0000
,
0000
0000
0001
0000
1000
0000
0100
0000
,
1000
0000
0100
0000
0000
0000
1000
0000
,
0001
0000
0010
0000
0000
0000
0001
0000
,
0000
0000
1000
0000
1000
0000
0001
0000
,
0001
0000
1000
0000
0000
0000
0001
0000
,
1000
0000
0010
0000
0100
0000
0000
0000
,
0000
0000
1000
0000
1000
0000
0001
0000
,
0000
0000
1000
0000
1000
0000
0001
0000
,
0000
0000
0000
0000
0001
0000
0001
0000
,
0000
0000
1000
0000
1000
0000
0001
0000
,
1000
0000
0100
0000
0000
0000
1000
0000
,
1000
0000
0000
0000
0100
0000
0100
0000
,
1000
0000
0100
0000
0000
0000
1000
0000
,
0000
0000
1000
0000
0001
0000
0000
0000
,
0000
0000
1000
0000
1000
0000
0001
0000
,
0001
0000
0000
0000
0001
0000
0000
0000
,
0001
0000
0020
0000
0000
0000
0000
0000
,
0000
0000
0000
0000
0000
0000
1030
0000
,
1000
0000
0010
0000
0110
0000
1000
0000
,
1010
0000
0100
0000
0010
0000
0010
0000
,
0001
0000
0100
0000
0001
0000
0010
0000
,
1000
0000
0010
0000
1000
0000
0100
0000
,
0001
0000
0001
0000
0100
0000
0100
0000
,
1000
0000
0100
0000
1000
0000
0100
0000
,
1000
0000
1000
0000
0000
0000
0100
0000
,
1000
0000
0100
0000
1000
0000
0100
0000
,
0001
0000
0100
0000
0001
0000
0010
0000
,
0001
0000
0100
0000
0001
0000
0010
0000
,
1000
0000
0100
0000
1000
0000
0100
0000
,
0001
0000
0100
0000
0001
0000
0010
0000
,
0001
0000
0001
0000
0100
0000
0100
0000
,
1000
0000
0100
0000
1000
0000
0100
0000
,
1000
0000
1000
0000
0000
0000
0100
0000
,
0001
0000
0001
0000
0100
0000
0100
0000
,
0001
0000
0100
0000
0010
0000
0000
0000
,
0001
0000
0000
0000
0001
0000
0000
0000
,
0001
0000
0100
0000
0010
0000
0000
0000
,
1000
0000
0000
0000
0100
0000
0100
0000
,
0001
0000
0100
0000
0010
0000
0000
0000
,
0001
0000
0000
0000
0001
0000
0000
0000
,
0001
0000
0100
0000
0010
0000
0000
0000
,
1000
0000
0100
0000
0000
0000
1000
0000
,
1000
0000
0010
0000
1000
0000
0002
0000
,
0001
0000
0000
0000
0001
0000
0000
0000
,
0000
0000
0000
0000
1000
0000
0100
0000
,
0001
0000
0000
0000
0001
0000
0000
0000
,
0000
0000
0000
0000
2000
0000
0100
0000
,
0000
0000
0000
0000
3000
0000
1000
0000
,
0000
0000
0000
0000
1000
0000
0100
0000
,
0001
0000
0000
0000
0001
0000
0000
0000
,
0001
0000
0000
0000
0001
0000
0000
0000
,
0000
0000
0000
0000
1000
0000
0001
0000
,
0000
0000
1000
0000
0000
0000
0001
0000
,
1000
0000
2000
0000
0000
0000
1000
0000
,
0000
0000
1000
0000
3000
0000
1000
0000
,
0001
0000
0100
0000
0001
0000
0010
0000
,
0001
0000
0010
0000
0001
0000
0100
0000
,
0001
0000
0001
0000
0100
0000
0100
0000
,
1000
0000
0100
0000
1000
0000
0100
0000
,
1000
0000
1000
0000
0000
0000
0100
0000
,
1000
0000
0100
0000
1000
0000
0100
0000
,
1000
0001
0020
0000
0000
0000
1000
0000
,
0000
0000
0031
0000
0100
0000
0100
0000
,
1000
0000
0100
0000
1000
0000
0100
0000
,
1000
0000
0010
0000
1000
0000
0010
0000
,
0001
0000
0000
0000
0100
0000
0001
0000
,
1000
0000
0100
0000
1000
0000
0100
0000
,
1000
0000
0010
0000
1000
0000
0002
0000
,
0001
0000
0000
0000
0001
0000
0000
0000
,
1000
0000
0100
0000
1000
0000
0100
0000
,
1000
0000
0100
0000
1000
0000
0100
0000
,
1000
0000
1000
0000
0000
0000
0100
0000
,
1000
0000
0100
0000
0000
0000
1000
0000
,
1000
0000
0100
0000
1000
0000
0100
0000
,
0001
0000
0010
0000
0001
0000
0010
0000
,
0001
0000
0000
0000
0100
0000
0001
0000
,
1000
0000
0100
0000
1000
0000
0100
0000
,
0001
0000
1000
0000
0000
0000
0001
0000
,
0000
0000
1000
0000
1000
0000
0001
0000
,
1000
0000
1000
0000
0000
0000
0100
0000
,
0000
0000
0001
0000
1000
0000
0100
0000
,
0101
0000
1000
0000
0010
0000
0001
0000
,
0000
0000
0001
0000
1000
0000
0100
0000
,
1000
0000
1000
0000
0000
0000
0100
0000
,
1000
0010
1000
0000
0000
0000
0000
0000
,
;

//---------------dance-single - Heavy----------------
#NOTEDATA:;
#CHARTNAME:Heavy;
#STEPSTYPE:dance-single;
#DESCRIPTION:Heavy;
#CHARTSTYLE:;
#DIFFICULTY:Hard;
#METER:6;
#RADARVALUES:0.364451,0.416644,0.059949,0.013322,0.000000,383.000000,374.000000,9.000000,2.000000,0.000000,0.000000,0.000000,0.000000,0.000000,0.364451,0.416644,0.059949,0.013322,0.000000,383.000000,374.000000,9.000000,2.000000,0.000000,0.000000,0.000000,0.000000,0.000000;
#CREDIT:Heavy;
#NOTES:
0000
0000
0000
0000
0000
0000
1000
0000
,
0000
0000
0000
0000
0000
0000
1000
0000
,
0000
0000
1000
0000
0100
0000
1000
0000
,
0001
0000
1000
0000
0001
0000
0000
0000
,
0001
0000
0001
0000
0100
0000
1000
0000
,
1000
0000
0010
0000
1000
0000
0001
0000
,
0001
0000
0010
0000
0001
0000
0010
0000
,
0001
0000
1000
0000
0001
0000
0000
0000
,
0001
0000
0001
0000
0100
0000
1000
0000
,
1000
0000
0010
0000
1000
0000
0001
0000
,
0011
0000
0010
0000
0100
0000
0100
0000
,
0001
1000
1000
0000
0001
0000
0001
0000
,
1000
0000
0100
0000
0010
0100
0010
0000
,
0011
0000
0010
0000
0100
0000
0100
0000
,
1001
0000
0010
0000
0100
0000
0010
1000
,
0001
0100
0010
0000
1000
0000
0001
0000
,
1000
0000
0100
0000
0010
0100
0010
0000
,
0011
0000
0001
0000
0100
0000
0010
0000
,
0011
0000
0010
0000
0100
0000
0100
0000
,
1000
0000
0000
0000
1000
0000
0000
0000
,
0000
0001
0010
0000
0100
0000
1000
0000
,
0001
0000
1000
0000
0001
0000
0100
0000
,
1000
0000
0001
0000
1000
0000
0100
0000
,
1000
0000
0001
0000
0001
0000
0100
0000
,
0001
0000
0010
0000
0001
0000
0010
0000
,
0000
0001
0010
0000
0100
0000
0000
0000
,
1000
0000
0001
0000
0001
0000
0100
0000
,
0001
0000
1000
0000
1000
0000
0010
0000
,
0000
0000
0000
1000
0001
0000
0001
0000
,
1000
0000
0001
0000
0001
0000
0100
0000
,
0001
0000
1000
0000
0001
0000
0100
0000
,
1000
0000
0000
0000
0010
0000
0010
0000
,
0001
0000
1000
0000
0001
0000
0100
0000
,
0001
0000
1000
0000
0001
0000
0000
0000
,
1000
0000
0001
0000
0001
0000
0100
0000
,
1000
0000
0000
0000
1000
0000
0000
0000
,
1000
0000
0002
0000
0000
0000
0000
0000
,
0000
0000
0000
0000
0000
0000
0103
0000
,
0001
0000
0100
0000
0110
0000
1000
0000
,
0011
0000
0010
0000
0100
0000
0100
0000
,
0001
0100
0010
0000
1000
0000
0001
0000
,
0001
0100
0010
0000
1000
0000
0001
0000
,
0001
1000
1000
0000
0001
0000
0001
0000
,
1000
0000
0010
0000
1000
0000
0001
0000
,
0001
0000
0001
0000
0100
0000
1000
0000
,
1000
0000
0010
0000
1000
0000
0001
0000
,
0001
0100
0010
0000
1000
0000
0001
0000
,
1000
0100
0010
0000
0001
0000
1000
0000
,
1000
0000
0010
0000
1000
0000
0001
0000
,
0001
0100
0010
0000
1000
0000
0001
0000
,
0001
1000
1000
0000
0001
0000
0001
0000
,
1000
0000
0010
0000
1000
0000
0001
0000
,
0001
0000
0001
0000
0100
0000
1000
0000
,
0001
1000
1000
0000
0001
0000
0001
0000
,
1000
0000
0010
0000
0100
0000
0000
0000
,
1000
0000
0000
0000
1000
0000
0000
0000
,
1000
0000
0010
0000
0100
0000
0000
0000
,
1000
0000
0000
0000
0010
0000
0010
0000
,
1000
0000
0010
0000
0100
0000
0000
0000
,
1000
0000
0000
0000
1000
0000
0000
0000
,
1000
0000
0010
0000
0100
0000
0000
0000
,
0001
0000
1000
0000
0001
0000
0100
0000
,
0001
0000
1000
0000
0010
0000
0200
0000
,
1000
0000
0000
0000
1000
0000
0000
0000
,
0000
0000
0000
0000
1000
0000
0010
0000
,
1000
0000
0000
0000
1000
0000
0000
0000
,
0000
0000
0000
0000
0020
0000
0010
0000
,
0000
0000
0000
0000
0030
0000
0100
0000
,
0000
0000
0000
0000
1000
0000
0010
0000
,
1000
0000
0000
0000
1000
0000
0000
0000
,
1000
0000
0000
0000
1000
0000
0000
0000
,
0000
0000
0000
0000
0001
0000
0010
0000
,
0000
0000
1000
0000
0100
0000
1000
0000
,
0001
0000
0002
0000
0000
0000
1000
0000
,
0000
0000
0010
0000
0003
0000
0010
1000
,
0001
0100
0010
0000
1000
0000
0001
0000
,
0001
0100
0010
0000
1000
0000
0001
0000
,
0001
1000
1000
0000
0001
0000
0001
0000
,
1000
0000
0010
0000
1000
0000
0001
0000
,
0001
0000
0001
0000
0100
0000
1000
0000
,
1000
0000
0010
0000
1000
0000
0001
0000
,
1001
0000
0020
0000
0000
0000
0010
0000
,
0000
0000
1030
0000
0001
0000
0001
0000
,
1000
0000
0010
0000
1000
0000
0001
0000
,
0001
0000
0100
0000
0001
0000
1000
0000
,
0001
0000
0010
0000
0100
0000
1000
0000
,
1000
0000
0010
0000
1000
0000
0001
0000
,
0001
0000
1000
0000
0010
0000
0200
0000
,
1000
0000
0000
0000
1000
0000
0000
0000
,
1000
0000
0010
0000
1000
0000
0001
0000
,
0001
0000
0010
0000
0001
0000
1000
0000
,
0001
0000
0001
0000
0100
0000
1000
0000
,
0001
0000
1000
0000
0001
0000
0100
0000
,
1000
0000
0010
0000
1000
0000
0001
0000
,
1000
0000
0010
0000
1000
0000
0001
0000
,
0001
0000
0010
0000
0100
0000
1000
0000
,
1000
0000
0010
0000
1000
0000
0001
0000
,
0001
0000
0010
0000
0001
0000
0010
0000
,
1000
0000
0001
0000
0001
0000
0100
0000
,
0001
0000
0001
0000
0100
0000
1000
0000
,
0000
0001
0010
0000
0100
0000
1000
0000
,
0011
0000
0010
0000
0100
0000
0010
0000
,
0000
0001
0010
0000
0100
0000
1000
0000
,
0001
0000
0001
0000
0100
0000
1000
0000
,
0001
0010
0001
0000
0000
0000
0000
0000
,
;
