#TITLE:No Time;
#SUBTITLE:;
#ARTIST:KSI;
#TITLETRANSLIT:;
#SUBTITLETRANSLIT:;
#ARTISTTRANSLIT:;
#GENRE:;
#CREDIT:Gorilla v1.1.3 (Dancing Monkeys v1.06);
#BANNER:maxresdefault (1).png;
#BACKGROUND:beerus_wallpaper_by_spammboy_deymdgz-fullview.png;
#LYRICSPATH:;
#CDTITLE:;
#MUSIC:onlymp3.to - KSI No Time feat. Lil Durk Official Video -uvSZZVPvoNA-192k-1696867824.mp3;
#OFFSET:-1.204875;
#SAMPLESTART:41.700375;
#SAMPLELENGTH:12.000000;
#SELECTABLE:YES;
#BPMS:0.000000=160.018005
;
#STOPS:
;
#BGCHANGES:;
#KEYSOUNDS:;
#ATTACKS:;

//---------------dance-single - Basic----------------
#NOTES:
     dance-single:
     Basic:
     Easy:
     5:
     0.262385,0.318805,0.009517,0.085649,0.000000,193.000000,192.000000,1.000000,9.000000,0.000000,0.000000,0.262385,0.318805,0.009517,0.085649,0.000000,193.000000,192.000000,1.000000,9.000000,0.000000,0.000000:
// measure 0
0000
0000
0000
0001
,  // measure 1
0000
0000
0000
0001
,  // measure 2
0000
0000
0000
0001
,  // measure 3
0200
0000
0000
0000
,  // measure 4
0000
0300
0000
0001
,  // measure 5
1000
0020
0000
0100
,  // measure 6
0000
1000
0030
0100
,  // measure 7
0000
0001
0000
0100
,  // measure 8
1000
0001
0000
0100
,  // measure 9
0000
0001
0000
0100
,  // measure 10
0000
0001
0000
0100
,  // measure 11
0000
1000
0000
0010
,  // measure 12
0001
0100
0001
0010
,  // measure 13
1000
0010
0100
0100
,  // measure 14
1000
0001
1000
0100
,  // measure 15
2000
0010
0001
0000
,  // measure 16
3001
0010
0001
0010
,  // measure 17
1000
0010
0100
0100
,  // measure 18
1000
0001
1000
0010
,  // measure 19
0000
0100
1000
0001
,  // measure 20
0000
0010
0000
0001
,  // measure 21
0000
0010
0000
0001
,  // measure 22
0000
0001
1000
0010
,  // measure 23
1000
0010
0100
0100
,  // measure 24
0001
0010
0001
0010
,  // measure 25
1000
0010
0100
0010
,  // measure 26
1000
0001
1000
0010
,  // measure 27
1000
0010
0100
0100
,  // measure 28
1000
0001
0000
0100
,  // measure 29
1000
0000
0100
0000
,  // measure 30
0100
0001
0010
0020
,  // measure 31
0000
1000
0000
0030
,  // measure 32
1000
0001
0000
0200
,  // measure 33
0000
0001
0000
0300
,  // measure 34
0001
1000
0000
0001
,  // measure 35
0000
1000
0000
0010
,  // measure 36
1000
0001
0000
1000
,  // measure 37
0000
0001
0000
0100
,  // measure 38
0000
0001
0200
1000
,  // measure 39
0000
1000
0300
0100
,  // measure 40
0001
1000
0000
0100
,  // measure 41
0000
1000
0000
0100
,  // measure 42
0000
1000
0000
0010
,  // measure 43
0000
0001
0000
0100
,  // measure 44
0001
0010
0001
0010
,  // measure 45
1000
0010
0100
0100
,  // measure 46
1000
0100
1000
0010
,  // measure 47
0020
0100
0000
0000
,  // measure 48
0000
0030
1000
0010
,  // measure 49
1000
0010
0100
0100
,  // measure 50
1000
0001
1000
0010
,  // measure 51
2000
0100
0000
0010
,  // measure 52
3000
0001
0000
0100
,  // measure 53
0000
0010
0000
0001
,  // measure 54
0001
1001
1000
1000
,  // measure 55
1000
0010
0100
0100
,  // measure 56
0001
0010
0001
0010
,  // measure 57
1000
0010
0100
0100
,  // measure 58
1000
0001
1000
0010
,  // measure 59
1000
0010
0100
0100
,  // measure 60
1000
0001
0000
0020
,  // measure 61
0000
1000
0000
0130
,  // measure 62
0001
1000
0000
0010
,  // measure 63
1000
0001
0000
0100
,  // measure 64
0001
0000
0100
0001
,  // measure 65
1000
0100
0000
0010
,  // measure 66
0100
0000
0001
0100
,  // measure 67
0001
0000
0000
0000
;

//---------------dance-single - Standard----------------
#NOTES:
     dance-single:
     Standard:
     Medium:
     7:
     0.388819,0.492958,0.209364,0.076132,0.000000,286.000000,264.000000,22.000000,8.000000,0.000000,0.000000,0.388819,0.492958,0.209364,0.076132,0.000000,286.000000,264.000000,22.000000,8.000000,0.000000,0.000000:
0000
0000
1000
0000
0000
0000
0001
0000
,
0000
0000
0001
0000
0000
0000
1000
0000
,
0000
0000
0001
0000
0000
0000
1000
0000
,
0002
0000
0000
0000
0000
0000
0000
0000
,
0000
0000
1003
0000
0000
0000
0001
0000
,
1000
0000
0020
0000
0001
0000
1000
0000
,
1000
0000
0001
0000
0230
0000
1000
0000
,
0001
0000
1000
0000
1300
0000
0001
0000
,
1000
0000
0001
0000
0001
0000
2000
0000
,
0001
0000
1000
0000
1000
0000
0001
0000
,
1000
0000
0001
0000
0001
0000
1000
0000
,
1000
0000
0001
0000
3001
0000
1000
0000
,
0001
0000
1010
0000
0001
0000
0010
0000
,
0001
0010
0001
0000
1001
0000
0001
0010
,
1000
0000
0011
0000
0100
0001
0100
0001
,
0002
0000
0100
0000
0000
0000
1000
0000
,
0003
0000
1010
0000
0001
0000
0010
0000
,
0001
0010
0001
0000
1001
0000
0001
0010
,
1000
0000
0011
0000
0100
0001
0100
0001
,
0002
0000
0100
0000
0000
0000
1000
0000
,
0000
0000
1000
0000
0000
0000
0001
0000
,
0000
0000
1000
0000
0000
0000
0001
0000
,
1000
0000
0003
0001
1000
0010
1000
0100
,
0001
0010
0001
0000
1001
0000
0001
0010
,
0001
0000
1010
0000
0001
0000
0010
0000
,
0001
0010
0001
0000
1001
0000
0001
0010
,
1000
0000
0011
0000
0100
0001
0100
0001
,
0001
0010
0001
0000
1001
0000
0001
0010
,
1000
0000
0001
0000
0001
0000
1000
0000
,
0001
0000
0001
0010
0001
0000
0020
0000
,
1000
0000
0001
0000
0001
0000
2030
0000
,
0001
0000
1000
0000
1000
0000
3001
0000
,
0001
0000
1000
0000
1000
0000
2000
0000
,
1000
0000
0001
0000
0001
0000
3000
0000
,
1000
0000
0001
0000
0001
0000
0020
0000
,
0001
0000
1000
0000
1000
0000
0031
0000
,
1000
0000
0001
0000
0001
0000
0002
0000
,
1000
0000
0001
0000
0001
0000
1000
0000
,
0001
0000
1000
0000
0023
0000
0001
0000
,
1000
0000
0001
0000
0031
0000
1000
0000
,
1000
0000
0001
0000
0020
0000
1000
0000
,
0001
0000
1000
0000
1000
0000
0001
0000
,
0001
0000
1000
0000
1000
0000
0001
0000
,
0001
0000
1000
0000
1030
0000
0001
0000
,
0001
0000
1010
0000
0001
0000
0010
0000
,
0001
0010
0001
0000
1001
0000
0001
0010
,
1000
0000
0011
0000
0100
0001
0100
0001
,
0002
0000
0100
0000
0000
0000
1000
0000
,
0001
0000
0003
1000
0001
0000
0010
0000
,
0001
0010
0001
0000
1001
0000
0001
0010
,
1000
0000
0011
0000
0100
0001
0100
0001
,
0200
0000
0100
0000
0000
0000
1000
0000
,
1300
0000
0001
0000
0001
0000
1000
0000
,
0000
0000
1000
0000
0000
0000
0001
0000
,
1000
0000
0110
0000
1000
0010
1000
0100
,
0001
0010
0001
0000
1001
0000
0001
0010
,
0001
0000
1010
0000
0001
0000
0010
0000
,
0001
0010
0001
0000
1001
0000
0001
0010
,
1000
0000
0011
0000
0100
0001
0100
0001
,
0001
0010
0001
0000
1001
0000
0001
0010
,
1000
0000
0001
0000
0001
0000
0002
0000
,
1000
0000
0001
0000
0001
0000
1003
0000
,
1000
0000
0001
0000
0001
0000
1000
0000
,
1000
0000
0001
0000
0001
0000
1000
0000
,
0000
0000
1000
0000
0000
0000
0001
0000
,
;

//---------------dance-single - Heavy----------------
#NOTES:
     dance-single:
     Heavy:
     Hard:
     7:
     0.421448,0.492958,0.209364,0.047583,0.000000,310.000000,288.000000,22.000000,5.000000,0.000000,0.000000,0.421448,0.492958,0.209364,0.047583,0.000000,310.000000,288.000000,22.000000,5.000000,0.000000,0.000000:
0000
0000
0001
0000
0000
0000
0100
0000
,
0000
0000
1000
0000
0000
0000
0010
0000
,
0000
0000
1000
0000
0000
0000
0010
0000
,
0002
0000
0000
0000
0000
0000
0000
0000
,
0000
0000
0003
0000
0000
0000
0100
0000
,
1000
0000
0002
0000
0100
0000
0001
0000
,
1000
0000
0100
0000
0023
0000
0001
0000
,
1000
0000
0010
0000
0130
0000
0001
0000
,
1000
0000
0100
0010
0010
0000
0200
0000
,
0001
0000
0010
0000
0100
0000
1000
0000
,
0001
0000
0100
0000
0010
0000
1000
0000
,
1000
0000
0010
0000
0300
0000
0001
0000
,
0001
0000
0011
0000
0100
0010
1000
0001
,
0001
0100
0010
0000
1001
0000
0001
0100
,
0001
0000
1100
0000
0010
1000
0100
0010
,
0200
0000
0001
0000
0001
0000
0010
0000
,
0301
0000
0011
0000
0100
0010
1000
0001
,
0001
0100
0010
0000
1001
0000
0001
0100
,
0001
0000
1100
0000
0010
1000
0100
0010
,
2000
0000
0001
0000
0001
0000
0010
0000
,
0000
0000
0001
0000
0000
0000
0100
0000
,
0000
0000
1000
0000
0000
0000
0100
0000
,
1000
0000
3000
1000
0100
1000
0010
1000
,
0001
0100
0010
0000
1001
0000
0001
0100
,
0001
0000
0011
0000
0100
0010
1000
0001
,
0001
0100
0010
0000
1001
0000
0001
0100
,
0001
0000
1100
0000
0010
1000
0100
0010
,
0001
0100
0010
0000
1001
0000
0001
0100
,
1000
0000
0010
0100
0100
0000
0001
0000
,
1000
0100
0100
0010
0001
0100
2000
0000
,
1000
0000
0010
0000
0100
0000
3020
0000
,
1000
0000
0010
0000
0100
0000
0031
0000
,
1000
0000
0100
0010
0010
0000
2000
0000
,
0001
0000
0100
0000
0010
0000
3000
0000
,
1000
0000
0010
0100
0100
0000
2000
0000
,
1000
0000
0010
0000
0100
0000
3001
0000
,
1000
0000
0100
0010
0010
0000
0002
0000
,
0001
0000
0010
0000
0100
0000
1000
0000
,
1000
0000
0100
0000
0023
0000
0001
0000
,
1000
0000
0010
0000
0130
0000
0001
0000
,
0001
0000
0010
0100
2000
0000
1000
0000
,
1000
0000
0010
0000
0100
0000
0001
0000
,
1000
0000
0010
0000
0100
0000
0001
0000
,
1000
0000
0100
0000
3010
0000
0001
0000
,
0001
0000
0011
0000
0100
0010
1000
0001
,
0001
0100
0010
0000
1001
0000
0001
0100
,
0001
0000
1100
0000
0010
1000
0100
0010
,
2000
0000
0001
0000
0001
0000
0010
0000
,
0001
0000
3000
0001
0100
0010
1000
0001
,
0001
0100
0010
0000
1001
0000
0001
0100
,
0001
0000
1100
0000
0010
1000
0100
0010
,
0200
0000
0001
0000
0001
0000
0010
0000
,
1300
0000
0010
0100
0100
0000
0001
0000
,
0000
0000
0001
0000
0000
0000
0100
0000
,
1000
0000
1001
0000
0100
1000
0010
1000
,
0001
0100
0010
0000
1001
0000
0001
0100
,
0001
0000
0011
0000
0100
0010
1000
0001
,
0001
0100
0010
0000
1001
0000
0001
0100
,
0001
0000
1100
0000
0010
1000
0100
0010
,
0001
0100
0010
0000
1001
0000
0001
0100
,
1000
0000
0010
0100
0100
0000
0002
0000
,
0001
0000
0100
0000
0010
0000
1003
0000
,
0001
0000
0100
0010
0010
0000
1000
0000
,
0001
0000
0010
0100
0100
0000
1000
0000
,
0000
0000
0001
0000
0000
0000
0100
0000
,
;
