#VERSION:0.83;
#TITLE:TLC - NO SCRUBS (CUEHEAT X MERKS JERSEY CLUB REMIX);
#SUBTITLE:;
#ARTIST:Dancing Monkeys Project;
#TITLETRANSLIT:;
#SUBTITLETRANSLIT:;
#ARTISTTRANSLIT:;
#GENRE:;
#ORIGIN:;
#CREDIT:Gorilla v1.1.3 (Dancing Monkeys v1.06);
#BANNER:TLC.png;
#BACKGROUND:TLCgroup.png;
#PREVIEWVID:;
#JACKET:;
#CDIMAGE:;
#DISCIMAGE:;
#LYRICSPATH:;
#CDTITLE:;
#MUSIC:TLC - NO SCRUBS (CUEHEAT X MERKS JERSEY CLUB REMIX).mp3;
#OFFSET:-1.702438;
#SAMPLESTART:41.708687;
#SAMPLELENGTH:12.000000;
#SELECTABLE:YES;
#BPMS:0.000=149.977;
#STOPS:;
#DELAYS:;
#WARPS:;
#TIMESIGNATURES:0.000=4=4;
#TICKCOUNTS:0.000=4;
#COMBOS:0.000=1;
#SPEEDS:0.000=1.000=0.000=0;
#SCROLLS:0.000=1.000;
#FAKES:;
#LABELS:0.000=Song Start;
#BGCHANGES:;
#KEYSOUNDS:;
#ATTACKS:
;

//---------------dance-single - Basic----------------
#NOTEDATA:;
#CHARTNAME:Basic;
#STEPSTYPE:dance-single;
#DESCRIPTION:Basic;
#CHARTSTYLE:;
#DIFFICULTY:Easy;
#METER:6;
#RADARVALUES:0.292863,0.240091,0.000000,0.010513,0.000000,195.000000,195.000000,0.000000,1.000000,0.000000,0.000000,0.000000,0.000000,0.000000,0.292863,0.240091,0.000000,0.010513,0.000000,195.000000,195.000000,0.000000,1.000000,0.000000,0.000000,0.000000,0.000000,0.000000;
#CREDIT:Basic;
#NOTES:
0000
0000
2000
0000
,
0000
0000
3000
0100
,
0001
0100
0000
0000
,
1000
0100
0010
0000
,
0100
0010
1000
0001
,
1000
0010
1000
0001
,
1000
0001
0100
0100
,
0010
1000
1000
1000
,
0001
0010
0010
0010
,
0001
0001
0010
0010
,
0001
0100
0010
0100
,
1000
0010
1000
0010
,
0100
0010
0100
0001
,
1000
0001
1000
0001
,
1000
0100
0010
0100
,
0010
0100
1000
0010
,
0100
0010
0001
0010
,
0100
1000
0010
0100
,
0001
0010
1000
0100
,
0001
0010
1000
0010
,
0001
1000
0100
0010
,
0010
0100
0010
0100
,
0010
0100
0001
0100
,
1000
0001
0100
0010
,
1000
1000
1000
0001
,
0001
0001
0100
0100
,
0100
0100
0010
0100
,
0010
0001
1000
0010
,
1000
0100
0010
1000
,
0100
0010
0100
0010
,
1000
0010
0001
0010
,
1000
0010
0100
0001
,
1000
0010
0100
0010
,
0010
0100
0001
0100
,
1000
0001
1000
0001
,
1000
0001
0010
0100
,
0010
0100
1000
1000
,
0001
0010
0100
0001
,
0100
0001
1000
0010
,
0100
0010
0100
0100
,
0010
0010
1000
1000
,
0001
0001
0010
0010
,
0100
0100
0001
0010
,
1000
0100
1000
0100
,
1000
0100
0001
0100
,
0001
0100
0001
0010
,
1000
0010
0100
0001
,
0100
1000
0010
0001
,
1000
0001
1000
0010
,
0100
0001
0010
0100
,
0001
0100
1000
0010
;

//---------------dance-single - Basic----------------
#NOTEDATA:;
#CHARTNAME:;
#STEPSTYPE:dance-single;
#DESCRIPTION:Basic;
#CHARTSTYLE:;
#DIFFICULTY:Beginner;
#METER:6;
#RADARVALUES:0.150186,0.133384,0.000000,0.000000,0.000000,100.000000,100.000000,0.000000,0.000000,0.000000,0.000000,0.000000,0.000000,0.000000,0.150186,0.133384,0.000000,0.000000,0.000000,100.000000,100.000000,0.000000,0.000000,0.000000,0.000000,0.000000,0.000000,0.000000;
#CREDIT:;
#NOTES:
// measure 0
0000
0000
1000
0000
,  // measure 1
0000
0000
0000
0100
,  // measure 2
0000
0100
0000
0000
,  // measure 3
1000
0000
0010
0000
,  // measure 4
0100
0000
1000
0000
,  // measure 5
0010
0000
0001
0000
,  // measure 6
1000
0000
0100
0000
,  // measure 7
0010
0000
1000
0000
,  // measure 8
0001
0000
0010
0000
,  // measure 9
0001
0000
0010
0000
,  // measure 10
0001
0000
0010
0000
,  // measure 11
0001
0000
0100
0000
,  // measure 12
1000
0000
0100
0000
,  // measure 13
0001
0000
0100
0000
,  // measure 14
1000
0000
0001
0000
,  // measure 15
1000
0000
0010
0000
,  // measure 16
0100
0000
0001
0000
,  // measure 17
0100
0000
0010
0000
,  // measure 18
0001
0000
1000
0000
,  // measure 19
0001
0000
1000
0000
,  // measure 20
0001
1000
0000
0010
,  // measure 21
0000
1000
0000
0001
,  // measure 22
0000
1000
0000
0010
,  // measure 23
0000
0001
0000
0010
,  // measure 24
0000
1000
0000
0010
,  // measure 25
0000
0001
0000
1000
,  // measure 26
0000
0010
0000
1000
,  // measure 27
0000
0001
0000
0010
,  // measure 28
0000
0100
0000
1000
,  // measure 29
0000
0001
0000
0010
,  // measure 30
0000
0100
0000
0001
,  // measure 31
0000
0010
0000
0001
,  // measure 32
0000
0010
0000
0010
,  // measure 33
0000
1000
0000
0100
,  // measure 34
0000
0010
0000
0001
,  // measure 35
0000
1000
0000
0001
,  // measure 36
0000
0100
0000
1000
,  // measure 37
0000
0010
0000
0100
,  // measure 38
0000
0001
0000
1000
,  // measure 39
0000
0010
0000
0100
,  // measure 40
0000
0010
0000
1000
,  // measure 41
0000
0001
0000
0010
,  // measure 42
0000
0100
0000
0010
,  // measure 43
0000
1000
0000
0001
,  // measure 44
0000
1000
0000
0010
,  // measure 45
0000
0100
0000
0001
,  // measure 46
0000
0010
0000
0001
,  // measure 47
0000
1000
0000
0100
,  // measure 48
0000
0001
0000
0010
,  // measure 49
0000
0001
0000
1000
,  // measure 50
0000
0100
0000
0010
;
