#TITLE:No Easy Way Out;
#SUBTITLE:;
#ARTIST:Moonraccoon & Gryff;
#TITLETRANSLIT:;
#SUBTITLETRANSLIT:;
#ARTISTTRANSLIT:;
#GENRE:;
#CREDIT:DDR;
#BANNER:;
#BACKGROUND:;
#LYRICSPATH:;
#CDTITLE:;
#MUSIC:Moonraccoon & Gryff - No Easy Way Out (Cover).mp3;
#OFFSET:-0.923265;
#SAMPLESTART:50.447079;
#SAMPLELENGTH:12.000000;
#SELECTABLE:YES;
#BPMS:0.000000=125.999992
;
#STOPS:63.000000=1.904762
;
#BGCHANGES:;
#KEYSOUNDS:;
#ATTACKS:;

//---------------dance-single - Basic----------------
#NOTES:
     dance-single:
     Basic:
     Easy:
     3:
     0.112190,0.136223,0.003722,0.059551,0.000000,211.000000,210.000000,1.000000,16.000000,0.000000,0.000000,0.112190,0.136223,0.003722,0.059551,0.000000,211.000000,210.000000,1.000000,16.000000,0.000000,0.000000:
// measure 0
0001
0000
1000
0000
,  // measure 1
0001
0000
1000
0000
,  // measure 2
0001
0000
1000
0000
,  // measure 3
1000
0000
0100
0000
,  // measure 4
1000
0000
0100
0000
,  // measure 5
1000
0000
0100
0000
,  // measure 6
0010
0000
0001
0000
,  // measure 7
1000
0000
0100
0000
,  // measure 8
1000
0000
0001
0000
,  // measure 9
0010
0000
1000
0000
,  // measure 10
0010
0000
1000
0000
,  // measure 11
1000
0000
0100
0000
,  // measure 12
1000
0000
0001
0000
,  // measure 13
0001
0000
1000
0000
,  // measure 14
1000
0000
0001
0000
,  // measure 15
0100
0000
1000
0000
,  // measure 16
0000
0010
0000
0100
,  // measure 17
0000
0010
0000
0100
,  // measure 18
0000
0010
0000
0100
,  // measure 19
0000
0001
0000
0000
,  // measure 20
0000
0010
0000
0100
,  // measure 21
0000
0010
0000
0100
,  // measure 22
0000
0100
0000
0010
,  // measure 23
0000
0010
0000
0100
,  // measure 24
0000
0100
0000
0010
,  // measure 25
0000
0100
0000
0010
,  // measure 26
0000
0010
0000
0001
,  // measure 27
0000
1000
0000
0000
,  // measure 28
0001
0000
0000
0100
,  // measure 29
0000
0100
0000
0010
,  // measure 30
0000
0010
0000
0100
,  // measure 31
0000
0000
0000
0100
,  // measure 32
0000
0010
0000
0100
,  // measure 33
0000
0100
0000
1000
,  // measure 34
0000
0000
0001
0000
,  // measure 35
1000
0000
0000
0000
,  // measure 36
1001
0000
0100
0000
,  // measure 37
0001
0000
0100
0000
,  // measure 38
1000
0000
0100
0000
,  // measure 39
1000
0000
0100
0000
,  // measure 40
1000
0000
0100
0000
,  // measure 41
1000
0000
0100
0000
,  // measure 42
0001
0000
0010
0000
,  // measure 43
1000
0000
0100
0000
,  // measure 44
0000
1000
0000
0001
,  // measure 45
0000
0000
1000
0000
,  // measure 46
0010
0000
0100
0000
,  // measure 47
0001
0000
1000
0000
,  // measure 48
0010
0000
0100
0000
,  // measure 49
0001
0000
0010
0000
,  // measure 50
1000
0000
0010
0000
,  // measure 51
0001
0000
1000
0000
,  // measure 52
0001
0000
1000
0000
,  // measure 53
0002
0000
0000
0003
,  // measure 54
0000
1000
0000
0100
,  // measure 55
0000
1000
0000
0000
,  // measure 56
0010
0000
0001
0000
,  // measure 57
1000
0000
0001
0000
,  // measure 58
1000
0000
0100
0000
,  // measure 59
0010
0000
0100
0000
,  // measure 60
0001
0000
1000
0000
,  // measure 61
0010
0000
2000
0000
,  // measure 62
0000
3000
0020
0000
,  // measure 63
0000
0030
0002
0000
,  // measure 64
0000
0003
0000
0010
,  // measure 65
0000
0020
0000
0000
,  // measure 66
0000
0030
0000
0001
,  // measure 67
0000
2000
0000
0000
,  // measure 68
0000
3000
0000
1000
,  // measure 69
0000
0002
0000
0000
,  // measure 70
0000
0003
0000
0010
,  // measure 71
0000
0000
0100
0000
,  // measure 72
1000
0000
0001
0000
,  // measure 73
1000
0000
0100
0000
,  // measure 74
1000
0000
0001
0000
,  // measure 75
1000
0000
0100
0000
,  // measure 76
1000
0000
0001
0000
,  // measure 77
0100
0000
0010
0000
,  // measure 78
0001
0000
0000
0100
,  // measure 79
0000
0000
0000
1000
,  // measure 80
0000
0000
0000
0001
,  // measure 81
0000
0000
0000
0100
,  // measure 82
0000
0000
0000
1000
,  // measure 83
0000
1000
0000
0010
,  // measure 84
0000
1000
0000
0100
,  // measure 85
0000
1000
0000
0010
,  // measure 86
0000
0001
0000
0010
,  // measure 87
0000
1000
0000
0010
,  // measure 88
0000
0001
0000
0100
,  // measure 89
0000
0001
0000
0010
,  // measure 90
0000
0000
0100
0000
,  // measure 91
1000
0000
0100
0000
,  // measure 92
0010
0000
1000
0000
,  // measure 93
0100
0000
0100
0000
,  // measure 94
1000
0000
0010
0000
,  // measure 95
1000
0000
0100
0000
,  // measure 96
1000
0000
0010
0000
,  // measure 97
1000
0000
0020
0000
,  // measure 98
0000
0030
0002
0000
,  // measure 99
0000
0003
0000
0010
,  // measure 100
0000
1000
0000
1000
,  // measure 101
0000
0010
0000
0010
,  // measure 102
0000
1000
2000
0000
,  // measure 103
0000
3000
0010
0000
,  // measure 104
0001
0000
0002
0000
,  // measure 105
0000
0003
0000
0010
,  // measure 106
0000
1000
2000
0000
,  // measure 107
0000
3000
0000
0001
,  // measure 108
0000
1000
2000
0000
,  // measure 109
0000
3000
0000
0001
,  // measure 110
0000
1000
2000
0000
,  // measure 111
0000
3000
0000
0100
,  // measure 112
0000
0001
0000
0100
,  // measure 113
0000
1000
2000
0000
,  // measure 114
0000
0000
0000
0000
,  // measure 115
3000
0000
1000
0000
,  // measure 116
0001
0000
0100
0000
,  // measure 117
1000
0000
1000
0000
,  // measure 118
0001
0000
0010
0000
,  // measure 119
1000
0000
0001
0000
,  // measure 120
0010
0000
1000
0000
,  // measure 121
0002
0000
0000
0000
,  // measure 122
0003
0000
0000
0000
;

//---------------dance-single - Heavy----------------
#NOTES:
     dance-single:
     Heavy:
     Hard:
     5:
     0.279677,0.330788,0.018610,0.003722,0.000000,526.000000,521.000000,5.000000,1.000000,0.000000,0.000000,0.279677,0.330788,0.018610,0.003722,0.000000,526.000000,521.000000,5.000000,1.000000,0.000000,0.000000:
1000
0000
0000
0000
0001
0010
0000
0000
,
1000
0000
0100
0000
1000
0000
0010
0000
,
1000
0000
0000
0000
0001
0010
0000
0000
,
1000
0001
0010
0000
0001
0000
0000
0000
,
1000
0000
0010
0000
1000
0000
0010
0000
,
1000
0001
0010
0000
0001
0000
0000
0000
,
0101
0000
0001
0000
1000
0000
0001
0000
,
1000
0001
0010
0000
0001
0000
0000
0000
,
1000
0100
1000
0000
0100
0000
1000
0000
,
0001
0000
1000
0000
0100
0000
0010
0000
,
0001
0100
0010
0000
1000
0000
1000
0000
,
0001
0000
0010
0000
0001
0000
0010
0000
,
1000
0100
1000
0000
0100
0000
1000
0000
,
0001
0000
1000
0000
0100
0000
0010
0000
,
1000
0100
1000
0000
0100
0000
1000
0000
,
0000
0000
0001
0000
0000
0000
0010
0000
,
1000
0010
0000
0000
0000
0000
1000
0000
,
0001
0100
0000
0000
0000
0000
0001
0000
,
0001
0100
0000
0000
0000
0000
0001
0000
,
1000
0001
0010
0000
0001
0000
0000
0000
,
1000
0010
0000
0000
0000
0000
1000
0000
,
1000
0100
0000
0000
0000
0000
1000
0000
,
0001
0100
0000
0000
0000
0000
0001
0000
,
1000
0010
0000
0000
0000
0000
1000
0000
,
0001
0010
0000
0000
0000
0000
0001
0000
,
1000
0010
0000
0000
0000
0000
1000
0000
,
1000
0000
0100
0000
1000
0100
0010
0000
,
0000
0000
1000
0000
0100
0000
0010
0000
,
1000
0010
0000
0000
0000
0000
1000
0000
,
1000
0100
0000
0000
0000
0000
1000
0000
,
0001
0100
0000
0000
0000
0000
0001
0000
,
1000
0100
1000
0000
0100
0000
1000
0000
,
1000
0010
0000
0000
0000
0000
1000
0000
,
0001
0100
0000
0000
0000
0000
0001
0000
,
1000
0100
1000
0000
0100
0000
1000
0000
,
0110
0000
0001
0100
0010
0000
1100
0000
,
1000
0000
0010
0000
1000
0000
0010
0000
,
0001
0100
0010
0000
1000
0001
0100
0000
,
1000
0000
0100
0000
1000
0100
0010
0000
,
1000
0100
1000
0000
0100
0010
0001
0000
,
1000
0000
0010
0000
1000
0000
0010
0000
,
1000
0100
1000
0000
0100
0010
0001
0000
,
0001
0000
0100
0000
0010
1000
0100
0000
,
1000
0100
1000
0000
0100
0010
0001
0000
,
0000
0000
0001
0000
0000
0000
0010
0000
,
1000
0000
0000
0000
0001
0010
0000
0000
,
0000
0000
1000
0000
0010
0000
1000
0000
,
0000
0000
0001
0000
0010
0000
0001
0000
,
0000
0000
0001
0000
0100
0000
0001
0000
,
0000
0000
1000
0000
0010
0000
1000
0000
,
0000
0000
0001
0000
0010
0000
0001
0000
,
0000
0000
0001
0000
0010
0000
0001
0000
,
1000
0010
0000
0000
0000
0000
1000
0000
,
0001
0000
0010
0000
0110
0000
0010
0000
,
0000
0000
1000
0000
0010
0000
1000
0000
,
0000
0000
0001
0000
0100
0000
0001
0000
,
0000
0000
0001
0000
0010
0000
0001
0000
,
1000
0100
1000
0000
0100
0000
1000
0000
,
0000
0000
1000
0000
0010
0000
1000
0000
,
0000
0000
1000
0000
0010
0000
1000
0000
,
0001
0000
1000
0000
0100
0000
0010
0000
,
1000
0000
1001
0000
0001
0010
0100
0000
,
1000
0100
1000
0000
0100
0010
0001
0000
,
0001
0100
0010
0000
1000
0000
1000
0000
,
1000
0100
1000
0000
0100
0010
0001
0000
,
0001
0100
0010
0000
1000
0000
1000
0000
,
1000
0100
1000
0000
0100
0010
0001
0000
,
0001
0100
0010
0000
1000
0000
1000
0000
,
1000
0001
0010
0000
0001
0000
0010
0000
,
1000
0000
0100
0010
0100
1000
0001
0000
,
1000
0100
1000
0000
0100
0010
0001
0000
,
1000
0000
0010
0000
1000
0000
0010
0000
,
1000
0100
1000
0000
0100
0000
1000
0000
,
1000
0000
0010
0000
1000
0000
0010
0000
,
1000
0100
1000
0000
0100
0000
1000
0000
,
1000
0000
0010
0000
1000
0000
0010
0000
,
1000
0001
0010
0000
0001
0000
0000
0000
,
0000
0000
1000
0001
0100
0000
0001
0010
,
0000
0000
0000
0000
0000
0000
0200
0000
,
0000
0000
0000
0000
0000
0000
1300
1000
,
0000
0000
1000
0000
0010
0000
1000
0000
,
0000
0000
0001
0000
0100
0000
0001
0000
,
0000
0000
0001
0000
0010
0000
0001
0000
,
0000
0000
1000
0000
0010
0000
1000
0000
,
1000
0100
1000
0000
0100
0000
1000
0000
,
0000
0000
1000
0000
0010
0000
1000
0000
,
0000
0000
0001
0000
0100
0000
0001
0000
,
1000
0000
0010
0000
1000
0000
0010
0000
,
1000
0000
0010
1000
0001
0000
1000
0000
,
1000
0100
1000
0000
0100
0010
0001
0000
,
0001
0100
0010
0000
1000
0000
1000
0000
,
1000
0100
1000
0000
0100
0010
0001
0000
,
0001
0100
0010
0000
1000
0000
1000
0000
,
1000
0100
1000
0000
0100
0010
0001
0000
,
0001
0100
0010
0000
1000
0000
1000
0000
,
1000
0100
1000
0000
0100
0010
0001
0000
,
1000
0100
0010
0100
1000
0000
0001
0000
,
1000
0100
1000
0000
0100
0010
0001
0000
,
1000
0100
0010
0100
1000
0000
0001
0000
,
1000
0100
1000
0000
0100
0010
0001
0000
,
0001
1000
0001
0000
0010
0000
0100
0001
,
1000
0100
1000
0000
0100
0010
0001
0000
,
0001
1000
0001
0000
0010
0000
0100
0001
,
1000
0010
1000
0000
0100
0010
0100
0010
,
1000
0000
0100
0010
0100
1000
0001
0000
,
1000
0100
1000
0000
0100
0010
0001
0000
,
1000
0000
0010
0000
1000
0001
0010
0001
,
0001
0100
0010
0000
1000
0001
0100
0000
,
1000
0000
0010
0000
1000
0001
0010
0001
,
0001
0100
0010
0000
1000
0001
0100
0000
,
1000
0000
0010
0000
1000
0001
0010
0001
,
0001
1000
0001
0000
0010
0000
0100
0001
,
1000
0100
1000
0000
0100
0010
0001
0000
,
0001
0100
0010
0000
1000
0000
1000
0000
,
1000
0100
1000
0000
0100
0010
0001
0000
,
0001
0100
0010
0000
1000
0000
1000
0000
,
1000
0100
1000
0000
0100
0010
0001
0000
,
0001
0100
0010
0000
1000
0000
1000
0000
,
1000
0000
0000
0000
0001
0000
0000
0000
,
0000
0000
0000
0000
0000
0000
0000
0000
,
0000
0000
0000
0000
0000
0000
0000
0000
,
0000
0000
0000
0000
0000
0000
0000
0000
,
0000
0000
0000
0000
0000
0000
0000
0000
,
0000
0000
0000
0000
0000
0000
0000
0000
,
0000
0000
0000
0000
0000
0000
0000
0000
,
0000
0000
0000
0000
0000
0000
0000
0000
,
0000
0000
0000
0000
0000
0000
0000
0000
,
0000
0000
0000
0000
0000
0000
0000
0000
,
;

//---------------dance-single - Basic----------------
#NOTES:
     dance-single:
     :
     Medium:
     3:
     0.174400,0.204335,0.011166,0.096770,0.000000,328.000000,325.000000,3.000000,26.000000,0.000000,0.000000,0.174400,0.204335,0.011166,0.096770,0.000000,328.000000,325.000000,3.000000,26.000000,0.000000,0.000000:
// measure 0
0001
0000
1000
0000
,  // measure 1
0001
0000
1000
0000
,  // measure 2
0001
0000
1000
0000
,  // measure 3
1000
0000
0100
0000
,  // measure 4
1000
0000
0100
0000
,  // measure 5
1000
0000
0100
0000
,  // measure 6
0010
0000
0001
0000
,  // measure 7
1000
0000
0100
0000
,  // measure 8
1000
0000
0001
0000
,  // measure 9
0010
0000
1000
0000
,  // measure 10
0010
0000
1000
1000
,  // measure 11
1000
0000
0100
1000
,  // measure 12
1000
0000
0001
0100
,  // measure 13
0001
0000
1000
0010
,  // measure 14
1000
0000
0001
0000
,  // measure 15
0100
0000
1000
0000
,  // measure 16
0000
0010
0000
0100
,  // measure 17
0000
0010
0000
0100
,  // measure 18
0000
0010
0000
0100
,  // measure 19
0000
1001
0000
0000
,  // measure 20
0000
0010
0010
0100
,  // measure 21
1000
0010
0000
0100
,  // measure 22
0001
0100
0000
0010
,  // measure 23
1000
0010
0000
0100
,  // measure 24
0001
0100
0000
0010
,  // measure 25
0001
0100
0000
0010
,  // measure 26
1000
0010
0100
0001
,  // measure 27
0000
1000
0010
0000
,  // measure 28
0001
0010
0000
0100
,  // measure 29
1000
0100
0000
0010
,  // measure 30
0001
0010
0000
0100
,  // measure 31
2000
0000
3000
0100
,  // measure 32
0001
0010
0000
0100
,  // measure 33
1000
0100
0000
1000
,  // measure 34
2000
0000
3002
0000
,  // measure 35
2003
0000
0000
3000
,  // measure 36
1001
0000
0100
0010
,  // measure 37
0001
1000
0100
0001
,  // measure 38
1000
0010
0100
0001
,  // measure 39
1000
0001
0100
0010
,  // measure 40
1000
1000
0100
0010
,  // measure 41
1000
0001
0100
0010
,  // measure 42
1000
0001
1000
0010
,  // measure 43
1000
0001
0100
0010
,  // measure 44
0000
1000
0000
0001
,  // measure 45
0000
0000
1000
0010
,  // measure 46
0000
1000
0100
0000
,  // measure 47
0001
1000
0100
0000
,  // measure 48
0100
0001
0100
0000
,  // measure 49
0010
0001
0010
0000
,  // measure 50
0010
1000
0010
0000
,  // measure 51
1000
0001
1000
0000
,  // measure 52
0001
0000
1000
0000
,  // measure 53
2002
0000
0000
3003
,  // measure 54
1000
1000
0100
0100
,  // measure 55
1000
1000
0100
0000
,  // measure 56
0010
0010
0001
0001
,  // measure 57
1000
1000
0001
0000
,  // measure 58
1000
1000
0100
0100
,  // measure 59
0010
0010
0100
0000
,  // measure 60
0001
0000
1000
0000
,  // measure 61
0010
0000
2000
0000
,  // measure 62
0000
3001
0100
0001
,  // measure 63
1000
0100
0002
0000
,  // measure 64
0000
1003
0100
0010
,  // measure 65
1000
0100
0020
0000
,  // measure 66
0000
1030
1000
0001
,  // measure 67
0001
0100
2000
0000
,  // measure 68
0000
3000
0010
1000
,  // measure 69
0001
1000
0002
0000
,  // measure 70
0000
0003
0100
0010
,  // measure 71
1000
0000
0100
0010
,  // measure 72
1000
0000
0001
0100
,  // measure 73
1000
0000
0100
0010
,  // measure 74
1000
0000
0001
0100
,  // measure 75
1000
0000
0100
0010
,  // measure 76
1000
0000
0001
0000
,  // measure 77
0100
0000
0010
0000
,  // measure 78
0002
0000
0000
0203
,  // measure 79
0000
0000
0000
2300
,  // measure 80
0000
0000
0000
3002
,  // measure 81
0000
0000
0000
0203
,  // measure 82
0000
0000
0000
1300
,  // measure 83
0000
1000
0000
0010
,  // measure 84
0000
1000
0000
0100
,  // measure 85
0000
1000
0000
0010
,  // measure 86
0000
0001
0000
0010
,  // measure 87
0000
1000
0000
0010
,  // measure 88
0000
0001
0000
0100
,  // measure 89
0000
0001
0000
0010
,  // measure 90
0000
0000
1000
1000
,  // measure 91
1000
0001
0100
0100
,  // measure 92
0100
0001
1000
1000
,  // measure 93
1000
0001
0100
0100
,  // measure 94
0100
0001
1000
1000
,  // measure 95
1000
0001
0100
0010
,  // measure 96
1000
0010
1000
0010
,  // measure 97
1000
0001
2000
0000
,  // measure 98
0000
0000
3002
0000
,  // measure 99
0000
1003
0100
0010
,  // measure 100
0001
0010
0002
0000
,  // measure 101
0000
0003
0010
0010
,  // measure 102
0001
0010
2000
0000
,  // measure 103
0000
3000
0010
0010
,  // measure 104
0001
1000
0002
0000
,  // measure 105
0000
0003
0010
0010
,  // measure 106
0001
0010
2000
0000
,  // measure 107
0000
3000
0001
0001
,  // measure 108
0010
0010
2000
0000
,  // measure 109
0000
3000
0001
0001
,  // measure 110
0001
0001
2000
0000
,  // measure 111
0000
3000
0100
0100
,  // measure 112
1000
0001
0100
0100
,  // measure 113
1000
0100
2000
0000
,  // measure 114
0000
0000
0000
0000
,  // measure 115
3000
1000
1000
1000
,  // measure 116
0001
0001
0100
0100
,  // measure 117
1000
1000
1000
1000
,  // measure 118
0001
0001
0010
0010
,  // measure 119
1000
1000
0001
0001
,  // measure 120
0010
0010
1000
1000
,  // measure 121
0002
0000
0000
0000
,  // measure 122
0003
0000
0000
0000
;
