#VERSION:0.83;
#TITLE:Nagatoro op2;
#SUBTITLE:;
#ARTIST:Unknown artist;
#TITLETRANSLIT:;
#SUBTITLETRANSLIT:;
#ARTISTTRANSLIT:;
#GENRE:;
#ORIGIN:;
#CREDIT:;
#BANNER:maxresdefault.png;
#BACKGROUND:6d1db1b46e21cd937c042f2548a1d478.png;
#PREVIEWVID:;
#JACKET:;
#CDIMAGE:;
#DISCIMAGE:;
#LYRICSPATH:;
#CDTITLE:;
#MUSIC:onlymp3.to - DON T TOY WITH ME MISS NAGATORO 2nd Attack Opening Love Crazy-XLugjk_uTWc-192k-1706589996.mp3;
#OFFSET:0.000000;
#SAMPLESTART:0.000000;
#SAMPLELENGTH:12.000000;
#SELECTABLE:YES;
#BPMS:0.000=162.000,
52.000=165.000,
74.000=167.000;
#STOPS:;
#DELAYS:;
#WARPS:;
#TIMESIGNATURES:0.000=4=4;
#TICKCOUNTS:0.000=4;
#COMBOS:0.000=1;
#SPEEDS:0.000=1.000=0.000=0;
#SCROLLS:0.000=1.000;
#FAKES:;
#LABELS:0.000=Song Start;
#BGCHANGES:;
#KEYSOUNDS:;
#ATTACKS:
;

//---------------dance-single - ----------------
#NOTEDATA:;
#CHARTNAME:;
#STEPSTYPE:dance-single;
#DESCRIPTION:;
#CHARTSTYLE:;
#DIFFICULTY:Easy;
#METER:1;
#RADARVALUES:0.291545,0.270108,0.000000,0.080032,0.000000,204.000000,204.000000,0.000000,8.000000,0.000000,0.000000,0.000000,0.000000,0.000000,0.291545,0.270108,0.000000,0.080032,0.000000,204.000000,204.000000,0.000000,8.000000,0.000000,0.000000,0.000000,0.000000,0.000000;
#CREDIT:;
#NOTES:
0000
0000
0000
0000
,
0000
1000
0000
0001
,
0000
1000
0000
0001
,
0000
1000
0000
0001
,
0000
1000
0000
0001
,
0000
1000
0001
0100
,
0010
1000
0100
0010
,
1000
0100
0001
0010
,
1000
0100
0001
0010
,
0100
1000
0010
0100
,
0001
0010
1000
0100
,
0001
0010
1000
0100
,
0001
0010
0100
0000
,
1000
0100
0010
1000
,
0001
0010
0100
1000
,
0010
0100
0001
1000
,
0001
1000
0001
1000
,
0010
0100
0010
1000
,
0010
0001
0100
0010
,
1000
0100
0001
1000
,
0100
0001
1000
0100
,
0010
1000
0100
0001
,
0010
0100
1000
0010
,
0001
0010
0100
1000
,
0100
0020
0000
0000
,
0030
1000
0001
0010
,
0100
1000
0001
0010
,
0100
1000
0100
0001
,
0100
0010
1000
0200
,
0000
0000
0300
0010
,
1000
0001
0010
0100
,
1000
0100
0001
0010
,
1000
0100
0001
0010
,
1000
0001
0100
0010
,
1000
0100
0002
0000
,
0000
0000
0003
0100
,
1000
0010
0100
0001
,
1000
0010
1000
0001
,
0010
0100
1000
0100
,
0001
0010
0100
1000
,
0010
0100
1000
0001
,
0010
1000
0100
0001
,
0010
0100
0001
0010
,
1000
0100
0001
0010
,
1000
0100
0001
1000
,
0100
0001
2000
3000
,
0002
0000
0003
2000
,
0000
3000
0002
0000
,
0000
0003
0000
1000
,
0100
0001
0100
1000
,
0010
1000
0001
0010
,
1000
0100
0001
0010
,
1000
0100
0001
0010
,
1000
0100
0001
0010
,
1000
0100
0001
0010
,
1000
0100
0001
0010
,
0100
1000
0100
0001
,
0010
1000
0100
0001
,
0010
1000
0001
0010
,
2000
0000
0000
0000
,
3000
0000
0000
0000
;

//---------------dance-single - ----------------
#NOTEDATA:;
#CHARTNAME:;
#STEPSTYPE:dance-single;
#DESCRIPTION:;
#CHARTSTYLE:;
#DIFFICULTY:Beginner;
#METER:1;
#RADARVALUES:0.157206,0.150060,0.000000,0.080032,0.000000,110.000000,110.000000,0.000000,8.000000,0.000000,0.000000,0.000000,0.000000,0.000000,0.157206,0.150060,0.000000,0.080032,0.000000,110.000000,110.000000,0.000000,8.000000,0.000000,0.000000,0.000000,0.000000,0.000000;
#CREDIT:;
#NOTES:
// measure 0
0000
0000
0000
0000
,  // measure 1
0000
1000
0000
0001
,  // measure 2
0000
1000
0000
0001
,  // measure 3
0000
1000
0000
0001
,  // measure 4
0000
1000
0000
0001
,  // measure 5
0000
1000
0000
0100
,  // measure 6
0000
1000
0000
0010
,  // measure 7
0000
0100
0000
0010
,  // measure 8
0000
0100
0000
0010
,  // measure 9
0000
1000
0000
0100
,  // measure 10
0000
0010
0000
0100
,  // measure 11
0000
0010
0000
0100
,  // measure 12
0000
0010
0000
0000
,  // measure 13
1000
0000
0010
0000
,  // measure 14
0001
0000
0100
0000
,  // measure 15
0010
0000
0100
0000
,  // measure 16
0010
0000
0001
0000
,  // measure 17
0100
0000
1000
0000
,  // measure 18
0010
0000
0100
0000
,  // measure 19
1000
0000
0001
0000
,  // measure 20
0100
0000
1000
0000
,  // measure 21
0010
0000
0100
0000
,  // measure 22
0010
0000
1000
0000
,  // measure 23
0001
0000
0100
0000
,  // measure 24
0010
0020
0000
0000
,  // measure 25
0030
0000
0001
0000
,  // measure 26
0100
0000
0001
0000
,  // measure 27
0100
0000
0010
0000
,  // measure 28
0100
0000
0100
0200
,  // measure 29
0000
0000
0300
0000
,  // measure 30
1000
0000
0010
0000
,  // measure 31
1000
0000
0001
0000
,  // measure 32
1000
0000
0001
0000
,  // measure 33
1000
0000
0100
0000
,  // measure 34
1000
0000
0002
0000
,  // measure 35
0000
0000
0003
0000
,  // measure 36
1000
0000
0100
0000
,  // measure 37
0000
0010
0000
0001
,  // measure 38
0000
0100
0000
0100
,  // measure 39
0000
0010
0000
1000
,  // measure 40
0000
0100
0000
0001
,  // measure 41
0000
1000
0000
0001
,  // measure 42
0000
0100
0000
0010
,  // measure 43
0000
0100
0000
0010
,  // measure 44
0000
0100
0000
1000
,  // measure 45
0000
0001
2000
3000
,  // measure 46
0002
0000
0003
2000
,  // measure 47
0000
3000
0002
0000
,  // measure 48
0000
0003
0000
1000
,  // measure 49
0000
0001
0000
1000
,  // measure 50
0000
1000
0000
0010
,  // measure 51
0000
0100
0000
0010
,  // measure 52
0000
0100
0000
0010
,  // measure 53
0000
0100
0000
0010
,  // measure 54
0000
0100
0000
0010
,  // measure 55
0000
0100
0000
0010
,  // measure 56
0000
1000
0000
0001
,  // measure 57
0000
1000
0000
0001
,  // measure 58
0000
1000
0000
1000
,  // measure 59
2000
0000
0000
0000
,  // measure 60
3000
0000
0000
0000
;
