#TITLE:Don't Toy With Me Nagatoro Op 1\\;
#SUBTITLE:;
#ARTIST:Dancing Monkeys Project;
#TITLETRANSLIT:;
#SUBTITLETRANSLIT:;
#ARTISTTRANSLIT:;
#GENRE:;
#CREDIT:Gorilla v1.1.3 (Dancing Monkeys v1.06);
#BANNER:Does-Nagatoro-Like-Senpai-s.png;
#BACKGROUND:mainimg.png;
#LYRICSPATH:;
#CDTITLE:;
#MUSIC:onlymp3.to - DON T TOY WITH ME MISS NAGATORO Opening EASY LOVE-7Ewk3Oxyhgk-192k-1706590047.mp3;
#OFFSET:-0.341854;
#SAMPLESTART:32.258518;
#SAMPLELENGTH:12.000000;
#SELECTABLE:YES;
#BPMS:0.000000=187.990005
;
#STOPS:
;
#BGCHANGES:;
#KEYSOUNDS:;
#ATTACKS:;

//---------------dance-single - Basic----------------
#NOTES:
     dance-single:
     Basic:
     Easy:
     4:
     0.209916,0.312625,0.000000,0.059976,0.000000,147.000000,147.000000,0.000000,6.000000,0.000000,0.000000,0.209916,0.312625,0.000000,0.059976,0.000000,147.000000,147.000000,0.000000,6.000000,0.000000,0.000000:
// measure 0
0000
1000
0000
0100
,  // measure 1
0000
0100
0000
0001
,  // measure 2
0000
1000
0000
0100
,  // measure 3
0000
0010
0000
0100
,  // measure 4
0000
0010
0000
0100
,  // measure 5
0000
0001
0000
0100
,  // measure 6
0000
0010
0000
1000
,  // measure 7
0000
0100
0000
0010
,  // measure 8
0000
0001
0000
1000
,  // measure 9
0000
0001
0000
0010
,  // measure 10
0000
0100
0000
0001
,  // measure 11
0000
0100
0000
0010
,  // measure 12
0000
1000
0000
0100
,  // measure 13
0000
0001
0000
0100
,  // measure 14
0000
0001
0000
1000
,  // measure 15
0000
0010
0000
0100
,  // measure 16
0000
0001
0000
0010
,  // measure 17
0000
0100
0000
1000
,  // measure 18
2000
0000
0000
3002
,  // measure 19
0000
0000
0000
0003
,  // measure 20
0001
0000
0100
0000
,  // measure 21
0010
0000
0100
0000
,  // measure 22
0010
0000
1000
0000
,  // measure 23
0001
0000
0100
0000
,  // measure 24
0010
2000
0000
0000
,  // measure 25
0000
0000
0000
0000
,  // measure 26
3000
1000
0001
1000
,  // measure 27
0001
1000
0001
0000
,  // measure 28
0001
0000
0010
0000
,  // measure 29
1000
0000
0100
0000
,  // measure 30
0010
0000
1000
0000
,  // measure 31
0001
1000
0001
0000
,  // measure 32
0001
0000
1000
0000
,  // measure 33
0100
0000
0000
0010
,  // measure 34
0002
0000
0000
0000
,  // measure 35
0000
0000
0003
0000
,  // measure 36
1000
0000
0010
0010
,  // measure 37
0000
1000
1000
0000
,  // measure 38
0001
0001
0000
0010
,  // measure 39
0010
0000
1000
1000
,  // measure 40
0000
0001
0000
0010
,  // measure 41
0000
0010
0000
1000
,  // measure 42
0000
0010
0000
0100
,  // measure 43
0000
0001
0000
0010
,  // measure 44
0000
1000
0000
0100
,  // measure 45
0100
0000
0000
0000
,  // measure 46
0100
0000
0010
0000
,  // measure 47
1000
0000
0010
0000
,  // measure 48
1000
0000
0100
0000
,  // measure 49
0010
0000
0100
0000
,  // measure 50
1000
0000
0010
0000
,  // measure 51
0010
0000
0100
0000
,  // measure 52
1000
0000
0001
0000
,  // measure 53
0000
0000
0000
0000
,  // measure 54
0100
0010
1000
0001
,  // measure 55
0100
0010
1000
1000
,  // measure 56
0100
0010
0100
0010
,  // measure 57
0100
0010
0001
0001
,  // measure 58
0100
0010
0100
0010
,  // measure 59
0100
0010
0100
0100
,  // measure 60
1000
0000
0010
0000
,  // measure 61
0000
0001
0000
0000
,  // measure 62
1000
0000
0100
0000
,  // measure 63
1000
0000
0100
0000
,  // measure 64
0002
0003
2000
3000
,  // measure 65
0001
0000
1000
0000
,  // measure 66
0010
0000
0001
0000
,  // measure 67
1000
0000
1000
0010
,  // measure 68
0000
0000
1000
0000
,  // measure 69
0010
0000
1000
0000
;

//---------------dance-single - Basic----------------
#NOTES:
     dance-single:
     :
     Beginner:
     4:
     0.182784,0.172431,0.000000,0.000000,0.000000,128.000000,128.000000,0.000000,0.000000,0.000000,0.000000,0.182784,0.172431,0.000000,0.000000,0.000000,128.000000,128.000000,0.000000,0.000000,0.000000,0.000000:
0000
1000
0000
0100
,
0000
0100
0000
0000
,
0000
0010
0000
0010
,
0000
0010
0000
0000
,
0000
0010
0000
0100
,
0000
0001
0000
0100
,
0000
0001
0000
1000
,
0000
0010
0000
0100
,
0000
0100
0000
0001
,
0000
0010
0000
1000
,
0000
0010
0000
0001
,
0000
0100
0000
1000
,
0000
0001
0000
0010
,
0010
0000
0100
0000
,
0010
0000
0100
0000
,
0010
0000
0010
0000
,
0010
0000
0100
0000
,
0100
0000
0100
0000
,
1000
0000
0000
0001
,
0000
0000
0000
0000
,
1000
0000
0100
0000
,
0010
0000
0100
0000
,
0001
0000
1000
0000
,
0001
0000
0100
0000
,
1000
1000
0000
0000
,
0000
0000
0000
0000
,
0000
1000
0000
0010
,
0000
1000
0000
0010
,
0000
1000
0000
0010
,
0000
1000
0000
0010
,
0000
0100
0000
0010
,
0000
1000
0000
0100
,
0000
0010
0000
1000
,
0000
0001
0000
0010
,
0010
0000
0000
0000
,
0000
0000
0000
0000
,
0000
0000
0010
0000
,
0000
1000
0000
0000
,
1000
0000
0010
0000
,
0100
0000
0001
0100
,
0000
1000
0000
0100
,
0000
0010
0000
1000
,
0000
0010
0000
0100
,
0000
1000
0000
0010
,
0000
0100
0000
1000
,
1000
0000
0000
0000
,
0010
0000
1000
0000
,
0010
0000
0100
0000
,
1000
0000
0100
0000
,
0010
0000
1000
0000
,
0100
0000
0010
0000
,
0100
0000
0001
0000
,
1000
0000
0001
0000
,
1000
0000
0001
0000
,
0100
0000
1000
0000
,
0100
0000
1000
0000
,
0100
0000
0010
0000
,
0001
0000
1000
0000
,
0100
0000
0010
0000
,
0001
0000
1000
0000
,
0100
0000
0010
0000
,
1000
0000
0010
0000
,
1000
0000
0100
0000
,
1000
0000
0100
0000
,
0001
0000
1000
0000
,
0001
0000
1000
0000
,
0010
0000
0001
0000
,
0100
0000
0001
0000
,
0010
0000
1000
0000
,
0001
0000
0000
0000
;
