#VERSION:0.83;
#TITLE:My Life as a Teenage Robot - Extended Theme;
#SUBTITLE:;
#ARTIST:Dancing Monkeys Project;
#TITLETRANSLIT:;
#SUBTITLETRANSLIT:;
#ARTISTTRANSLIT:;
#GENRE:;
#ORIGIN:;
#CREDIT:Gorilla v1.1.3 (Dancing Monkeys v1.06);
#BANNER:;
#BACKGROUND:;
#PREVIEWVID:;
#JACKET:;
#CDIMAGE:;
#DISCIMAGE:;
#LYRICSPATH:;
#CDTITLE:;
#MUSIC:My Life as a Teenage Robot - Extended Theme.mp3;
#OFFSET:-1.083396;
#SAMPLESTART:37.593895;
#SAMPLELENGTH:12.000000;
#SELECTABLE:YES;
#BPMS:0.000=150.000;
#STOPS:;
#DELAYS:0.000=1.000;
#WARPS:;
#TIMESIGNATURES:0.000=4=4;
#TICKCOUNTS:0.000=4;
#COMBOS:0.000=1;
#SPEEDS:0.000=0.900=0.000=0;
#SCROLLS:0.000=1.000;
#FAKES:;
#LABELS:0.000=Song Start;
#BGCHANGES:;
#KEYSOUNDS:;
#ATTACKS:
;

//---------------dance-single - Basic----------------
#NOTEDATA:;
#CHARTNAME:Basic;
#STEPSTYPE:dance-single;
#DESCRIPTION:Basic;
#CHARTSTYLE:;
#DIFFICULTY:Easy;
#METER:2;
#RADARVALUES:0.177032,0.168373,0.000000,0.040409,0.000000,92.000000,92.000000,0.000000,3.000000,0.000000,0.000000,0.000000,0.000000,0.000000,0.177032,0.168373,0.000000,0.040409,0.000000,92.000000,92.000000,0.000000,3.000000,0.000000,0.000000,0.000000,0.000000,0.000000;
#CREDIT:Basic;
#NOTES:
// measure 0
0000
0001
0000
0100
,  // measure 1
0000
1000
0000
0010
,  // measure 2
0000
0001
0000
0100
,  // measure 3
0000
0010
0000
1000
,  // measure 4
0000
0001
0000
0010
,  // measure 5
0000
1000
0000
0100
,  // measure 6
0000
0001
0000
0010
,  // measure 7
0000
1000
0000
0100
,  // measure 8
0000
1000
0000
0010
,  // measure 9
0000
0100
0000
0010
,  // measure 10
0000
1000
0000
0010
,  // measure 11
0000
0100
0000
0010
,  // measure 12
0000
0001
0000
0010
,  // measure 13
0000
0100
0000
0010
,  // measure 14
0000
0100
0000
0010
,  // measure 15
0000
0001
0000
1000
,  // measure 16
0000
0010
0000
0200
,  // measure 17
0000
0000
0000
0300
,  // measure 18
0000
0001
0000
0010
,  // measure 19
0000
0100
0000
0010
,  // measure 20
0000
1000
0000
0020
,  // measure 21
0000
0000
0000
0000
,  // measure 22
0030
0000
0000
0000
,  // measure 23
1000
0000
0100
0000
,  // measure 24
0010
0000
0100
0000
,  // measure 25
0001
0000
0100
0000
,  // measure 26
0010
0000
0001
0000
,  // measure 27
0100
0000
1000
0000
,  // measure 28
0010
0000
0100
0000
,  // measure 29
0010
0000
0001
0000
,  // measure 30
0100
0000
0010
0000
,  // measure 31
1000
0000
0010
0000
,  // measure 32
1000
0000
0100
0000
,  // measure 33
1000
0000
0010
0000
,  // measure 34
0100
0000
0001
0000
,  // measure 35
0010
0000
1000
0000
,  // measure 36
0001
0000
0100
0000
,  // measure 37
0010
0000
0100
0000
,  // measure 38
0010
0000
1000
0000
,  // measure 39
0100
0000
0001
0000
,  // measure 40
0010
0000
0100
0000
,  // measure 41
1000
0000
0010
0000
,  // measure 42
0100
0000
0001
0000
,  // measure 43
0010
0000
0100
0000
,  // measure 44
0010
0000
1000
0000
,  // measure 45
0100
0000
0010
0000
,  // measure 46
0001
0000
0010
0000
,  // measure 47
0100
0000
1000
0000
,  // measure 48
0010
0000
0000
0020
,  // measure 49
0000
0000
0000
0000
,  // measure 50
0030
0000
0000
0000
;
