#TITLE:My Hero Academia Season 7 - Opening 2 Curtain Call;
#SUBTITLE:;
#ARTIST:My Hero Academia;
#TITLETRANSLIT:;
#SUBTITLETRANSLIT:;
#ARTISTTRANSLIT:;
#GENRE:;
#CREDIT:Gorilla v1.1.3 (Dancing Monkeys v1.06);
#BANNER:;
#BACKGROUND:;
#LYRICSPATH:;
#CDTITLE:;
#MUSIC:My Hero Academia Season 7 - Opening 2 Curtain Call.mp3;
#OFFSET:-0.604785;
#SAMPLESTART:42.865555;
#SAMPLELENGTH:12.000000;
#SELECTABLE:YES;
#BPMS:0.000000=141.975998
;
#STOPS:
;
#BGCHANGES:;
#KEYSOUNDS:;
#ATTACKS:;

//---------------dance-single - Basic----------------
#NOTES:
     dance-single:
     Basic:
     Easy:
     3:
     0.174099,0.200557,0.000000,0.076768,0.000000,127.000000,127.000000,0.000000,8.000000,0.000000,0.000000,0.174099,0.200557,0.000000,0.076768,0.000000,127.000000,127.000000,0.000000,8.000000,0.000000,0.000000:
// measure 0
1000
0000
0010
0000
,  // measure 1
1000
0000
0010
0000
,  // measure 2
0001
1000
0010
0100
,  // measure 3
1000
1000
1000
0000
,  // measure 4
0001
0000
0010
0000
,  // measure 5
0001
0010
0100
0010
,  // measure 6
0001
0000
1000
0000
,  // measure 7
0010
0010
0001
0000
,  // measure 8
0010
0000
0100
0000
,  // measure 9
0001
0000
1000
0000
,  // measure 10
0010
0000
1000
0000
,  // measure 11
0001
0000
1000
0000
,  // measure 12
0001
0000
0010
0000
,  // measure 13
1000
0000
0001
0000
,  // measure 14
1000
0100
0010
0000
,  // measure 15
1000
0001
0010
0000
,  // measure 16
0001
1000
0100
0000
,  // measure 17
1000
0100
0010
0000
,  // measure 18
0001
0000
1000
0100
,  // measure 19
0002
0000
0003
0000
,  // measure 20
1000
0000
1000
0100
,  // measure 21
1000
0000
1000
0100
,  // measure 22
1000
0100
0002
0000
,  // measure 23
0003
0000
0001
0000
,  // measure 24
2000
0000
3000
0100
,  // measure 25
0001
0010
0100
0010
,  // measure 26
2000
0000
3000
0000
,  // measure 27
0000
1000
0100
1000
,  // measure 28
1000
0000
0010
0100
,  // measure 29
0001
0000
0100
0010
,  // measure 30
0001
0000
0100
0010
,  // measure 31
1000
0000
0001
1000
,  // measure 32
1000
0000
0010
0010
,  // measure 33
0000
1000
0010
0100
,  // measure 34
2000
0000
0000
0000
,  // measure 35
0000
0000
3000
0000
,  // measure 36
0001
0010
0001
0000
,  // measure 37
1000
0100
1000
0000
,  // measure 38
0010
1000
0010
0000
,  // measure 39
1000
0000
0001
0000
,  // measure 40
0100
0000
0001
0000
,  // measure 41
0100
0000
0001
0000
,  // measure 42
0010
0000
0100
0000
,  // measure 43
0001
0001
0001
0000
,  // measure 44
0100
0000
1000
0000
,  // measure 45
0010
0000
0001
0000
,  // measure 46
0010
0000
0100
0000
,  // measure 47
0001
0001
0001
0000
,  // measure 48
0001
0000
1000
0000
,  // measure 49
0010
0000
0001
0000
,  // measure 50
2000
3000
0020
0030
,  // measure 51
1000
1000
2000
0000
,  // measure 52
0000
3000
0000
0000
;
