#VERSION:0.83;
#TITLE:My Hero Academia - Opening 3 Sora ni Utaeba;
#SUBTITLE:;
#ARTIST:Dancing Monkeys Project;
#TITLETRANSLIT:;
#SUBTITLETRANSLIT:;
#ARTISTTRANSLIT:;
#GENRE:;
#ORIGIN:;
#CREDIT:Gorilla v1.1.3 (Dancing Monkeys v1.06);
#BANNER:;
#BACKGROUND:;
#PREVIEWVID:;
#JACKET:;
#CDIMAGE:;
#DISCIMAGE:;
#LYRICSPATH:;
#CDTITLE:;
#MUSIC:My Hero Academia - Opening 3 Sora ni Utaeba.mp3;
#OFFSET:-0.558299;
#SAMPLESTART:31.149862;
#SAMPLELENGTH:12.000000;
#SELECTABLE:YES;
#BPMS:0.000=203.978;
#STOPS:;
#DELAYS:;
#WARPS:;
#TIMESIGNATURES:0.000=4=4;
#TICKCOUNTS:0.000=4;
#COMBOS:0.000=1;
#SPEEDS:0.000=2.000=0.000=0;
#SCROLLS:0.000=1.000;
#FAKES:;
#LABELS:0.000=Song Start;
#BGCHANGES:;
#KEYSOUNDS:;
#ATTACKS:
;

//---------------dance-single - Basic----------------
#NOTEDATA:;
#CHARTNAME:Basic;
#STEPSTYPE:dance-single;
#DESCRIPTION:Basic;
#CHARTSTYLE:;
#DIFFICULTY:Easy;
#METER:4;
#RADARVALUES:0.280181,0.373588,0.000000,0.111436,0.000000,176.000000,176.000000,0.000000,10.000000,0.000000,0.000000,0.000000,0.000000,0.000000,0.280181,0.373588,0.000000,0.111436,0.000000,176.000000,176.000000,0.000000,10.000000,0.000000,0.000000,0.000000,0.000000,0.000000;
#CREDIT:Basic;
#NOTES:
// measure 0
1000
0001
0000
0000
,  // measure 1
0001
0100
0000
0000
,  // measure 2
0002
1000
0000
0003
,  // measure 3
0001
0100
0000
0000
,  // measure 4
0001
0010
0100
0000
,  // measure 5
2000
0000
3010
0000
,  // measure 6
1000
0001
0000
0000
,  // measure 7
1000
1000
0001
0100
,  // measure 8
0000
1000
0100
0001
,  // measure 9
1000
0100
0010
0000
,  // measure 10
1000
0010
0100
0000
,  // measure 11
0000
1000
0001
0100
,  // measure 12
0001
0000
0010
0001
,  // measure 13
0000
1000
0100
0001
,  // measure 14
0000
1000
1000
0010
,  // measure 15
0000
1000
0010
0010
,  // measure 16
0000
1000
0001
0000
,  // measure 17
1000
1000
0010
0010
,  // measure 18
1000
1000
0001
0001
,  // measure 19
1000
1000
0010
0010
,  // measure 20
1000
1000
0001
0001
,  // measure 21
1000
1000
0010
0010
,  // measure 22
2000
0000
3002
0000
,  // measure 23
0003
0000
0000
0000
,  // measure 24
0000
0000
0001
0001
,  // measure 25
0000
0001
0010
0001
,  // measure 26
0000
0000
0001
0001
,  // measure 27
0000
0000
0001
1000
,  // measure 28
0000
0000
0001
0100
,  // measure 29
0001
0000
1000
0000
,  // measure 30
1000
1000
0010
0000
,  // measure 31
0001
0000
0000
1000
,  // measure 32
0001
1000
0000
0000
,  // measure 33
0001
0000
1000
0000
,  // measure 34
0010
0000
1000
0010
,  // measure 35
0001
0000
0010
1000
,  // measure 36
0000
0010
0001
0001
,  // measure 37
2000
0000
3000
0010
,  // measure 38
0000
0000
0010
0002
,  // measure 39
0000
0000
0000
0000
,  // measure 40
0000
0000
0000
0003
,  // measure 41
0000
0001
0000
0000
,  // measure 42
0000
1000
0100
1000
,  // measure 43
0001
0100
0000
0010
,  // measure 44
0001
1000
0000
0010
,  // measure 45
0001
1000
0010
0100
,  // measure 46
0000
1000
0010
0000
,  // measure 47
1000
0001
0000
0000
,  // measure 48
1000
0100
0010
0000
,  // measure 49
0002
1000
0000
0003
,  // measure 50
0000
1000
0010
0000
,  // measure 51
0001
0010
0100
0000
,  // measure 52
1000
1000
0010
0000
,  // measure 53
0001
2000
0000
0000
,  // measure 54
3000
1000
0100
0010
,  // measure 55
0001
0000
0010
0001
,  // measure 56
1000
0100
0010
0000
,  // measure 57
1000
0010
0100
0000
,  // measure 58
0000
1000
0001
0100
,  // measure 59
0000
1000
0100
0010
,  // measure 60
0000
1000
0100
1000
,  // measure 61
0000
0000
1000
0100
,  // measure 62
0000
1000
0010
0000
,  // measure 63
0000
1000
0001
0000
,  // measure 64
0000
1000
0010
0000
,  // measure 65
0000
1000
0001
0000
,  // measure 66
0000
0001
1000
0000
,  // measure 67
0000
1000
0001
0000
,  // measure 68
0000
1000
0001
0000
,  // measure 69
0000
1000
0010
0000
,  // measure 70
2000
0000
0000
0000
,  // measure 71
0000
0000
0000
0000
,  // measure 72
0000
0000
0000
0000
,  // measure 73
3000
0000
0000
0020
,  // measure 74
0000
0000
0030
0000
;

//---------------dance-single - Standard----------------
#NOTEDATA:;
#CHARTNAME:Standard;
#STEPSTYPE:dance-single;
#DESCRIPTION:Standard;
#CHARTSTYLE:;
#DIFFICULTY:Medium;
#METER:5;
#RADARVALUES:0.284957,0.387238,0.055718,0.022287,0.000000,179.000000,174.000000,5.000000,2.000000,0.000000,0.000000,0.000000,0.000000,0.000000,0.284957,0.387238,0.055718,0.022287,0.000000,179.000000,174.000000,5.000000,2.000000,0.000000,0.000000,0.000000,0.000000,0.000000;
#CREDIT:Standard;
#NOTES:
1000
0000
0010
0000
0000
0000
0000
0000
,
1000
0000
0010
0000
0000
0000
0000
0000
,
2000
0000
0001
0000
0000
0000
3000
0000
,
1000
0000
0010
0000
0000
0000
0000
0000
,
1000
0000
0010
0000
1000
0000
0000
0000
,
1000
0000
0010
0000
0100
0000
0000
0000
,
1000
0000
0100
0000
0000
0000
0000
0000
,
0000
0000
0001
0000
0010
0000
0001
0000
,
1000
0000
0001
0000
1100
0000
1000
0000
,
0001
0000
0010
0000
0001
0000
0000
0000
,
0001
0000
0010
0000
0001
0000
0000
0000
,
0000
0000
0001
0000
0010
0000
0001
0000
,
0001
0000
0000
0000
0100
0000
0010
0000
,
0000
0000
0001
0000
0100
0000
0001
0000
,
0000
0000
1000
0000
0100
0000
0010
0000
,
0000
0000
0001
0000
0010
0000
0000
0000
,
0000
0000
1000
0000
0100
0000
0000
0000
,
0000
0000
0001
0000
0010
0000
0000
0000
,
0000
0000
1000
0000
0100
0000
0000
0000
,
0000
0000
0001
0000
0010
0000
0000
0000
,
0000
0000
1000
0000
0100
0000
0000
0000
,
0000
0000
0001
0000
0010
0000
0000
0000
,
0000
0000
0000
0000
1000
0000
0000
0010
,
1000
0000
0000
0000
0000
0000
0000
0000
,
0000
0000
0000
0000
1000
0000
0000
0000
,
1010
0000
0001
0000
0100
0000
0010
0000
,
0000
0000
0000
0000
1000
0000
0000
0010
,
1000
0000
0000
0000
0100
0000
0010
0000
,
0000
0000
0000
0000
1000
0000
0010
0000
,
0001
0000
0000
0000
1000
0000
0000
0000
,
0000
0000
0001
0000
0010
0000
0000
0000
,
1000
0000
0010
0000
0000
0000
0000
0000
,
0000
0000
0000
0000
1000
0000
0100
1000
,
0001
0000
0000
0000
0100
0000
0000
0000
,
0000
0000
0000
0000
0001
0000
0000
0010
,
1000
0010
0000
0000
0110
0000
1000
0000
,
0000
0000
0000
0000
1000
0000
0000
0000
,
0101
0000
0000
0000
1000
0000
0100
0000
,
1000
0000
0000
0000
0001
0000
0000
0000
,
1000
0000
0010
0000
0000
0000
0000
0000
,
0000
0000
0001
0000
0100
0000
0010
0000
,
1000
0000
0100
0000
0000
0000
0000
0000
,
0000
0000
0001
0000
0100
0000
0010
0000
,
0001
0000
1100
0000
0001
0000
0100
0000
,
0001
0000
0100
0000
0000
0000
0010
0000
,
1000
0000
0100
0000
1000
0000
0010
0000
,
0000
0000
1000
0000
0100
0000
0010
0000
,
1000
0000
0010
0000
0000
0000
0000
0000
,
0001
0000
0010
0000
0001
0000
0000
0000
,
2000
0000
0001
0000
0000
0000
3000
0000
,
1000
0000
0010
0000
0100
0000
0000
0000
,
1000
0000
0010
0000
1000
0000
0000
0000
,
1000
0000
0010
0000
0100
0000
0000
0000
,
0001
0000
0000
0000
0100
0000
0000
0000
,
0000
0000
1000
0000
0010
0000
1000
0000
,
0001
0000
0000
0000
0100
0000
0010
0000
,
0001
0000
0010
0000
0001
0000
0000
0000
,
1000
0000
0100
0000
1000
0000
0000
0000
,
0000
0000
0001
0000
0010
0000
0001
0000
,
0000
0000
1000
0000
0010
0000
1000
0000
,
0000
0000
0001
0000
0100
0000
0010
0000
,
0000
0000
0000
0000
1000
0000
0100
0000
,
0000
0000
0001
0000
0010
0000
0000
0000
,
0000
0000
1000
0000
0100
0000
0000
0000
,
0000
0000
0001
0000
0010
0000
0000
0000
,
0000
0000
1000
0000
0100
0000
0000
0000
,
0000
0000
1000
0000
0010
0000
0000
0000
,
0000
0000
0001
0000
0100
0000
0000
0000
,
0000
0000
1000
0000
0010
0000
0000
0000
,
0000
0000
0001
0000
0010
0000
0000
0000
,
0000
0000
0000
0000
0000
0000
0000
0000
,
;

//---------------dance-single - Heavy----------------
#NOTEDATA:;
#CHARTNAME:Heavy;
#STEPSTYPE:dance-single;
#DESCRIPTION:Heavy;
#CHARTSTYLE:;
#DIFFICULTY:Hard;
#METER:6;
#RADARVALUES:0.358186,0.387238,0.055718,0.022287,0.000000,225.000000,220.000000,5.000000,2.000000,0.000000,0.000000,0.000000,0.000000,0.000000,0.358186,0.387238,0.055718,0.022287,0.000000,225.000000,220.000000,5.000000,2.000000,0.000000,0.000000,0.000000,0.000000,0.000000;
#CREDIT:Heavy;
#NOTES:
0000
0000
1000
0000
0000
0000
0000
0001
,
1000
0000
0001
0000
0000
0000
1000
0000
,
0002
0000
1000
0000
0000
0000
0003
0000
,
1000
0000
0001
0000
0000
0000
1000
0000
,
1000
0000
0001
0000
0010
0000
0001
0000
,
0001
0000
0010
0000
0001
0000
0000
0000
,
1000
0000
0100
0000
1000
0000
0000
0000
,
0001
0000
1000
0000
0010
0000
1000
0000
,
1000
0000
0010
0000
1001
0000
1000
0000
,
1000
0000
0001
0000
0100
0000
0000
0000
,
0001
0000
1000
0000
0100
0000
0000
0000
,
0001
0000
1000
0000
0010
0000
1000
0000
,
1000
0000
0001
0000
0100
0000
0001
0000
,
0000
0000
0001
0000
1000
0010
0100
0000
,
0000
0000
1000
0000
0010
0000
1000
0000
,
0001
0000
0010
0000
0100
0000
0000
0000
,
1000
0000
0100
0000
0010
0000
0000
0000
,
0001
0000
0010
0000
0100
0000
0000
0000
,
1000
0000
0100
0000
0010
0000
0000
0000
,
0001
0000
0010
0000
0100
0000
0000
0000
,
1000
0000
0100
0000
0010
0000
0000
0000
,
0001
0000
0010
0000
0100
0000
0000
0000
,
0000
0000
0000
0000
1000
0000
1000
0010
,
1000
0000
0000
0000
0000
0000
0000
0001
,
0000
0000
0000
0000
1000
0000
1000
0000
,
1100
0000
1000
0100
1000
0000
0100
0000
,
0000
0000
0000
0000
1000
0000
1000
0010
,
0001
0000
0000
0000
0010
0000
0100
0000
,
0001
0000
0000
0000
1000
0000
0100
0000
,
0001
0000
0000
0000
0010
0000
0001
0000
,
0001
0000
0010
0000
0100
0000
0000
0000
,
0001
0000
0000
0000
0000
0010
0000
0000
,
0000
0000
0000
0000
0001
0000
0100
0001
,
0001
0000
0000
0000
0010
0000
0000
0100
,
0000
0000
0000
0000
1000
0010
0000
0100
,
0001
0010
0000
0000
1001
0000
1000
0000
,
0000
0000
0000
0000
1000
0000
1000
0000
,
1001
0000
0000
0000
1000
1000
0100
0000
,
1000
0000
0100
0000
1000
0000
0000
0000
,
0001
0000
0000
0000
0000
0010
0000
0000
,
0000
0000
1000
0000
0001
0000
0100
0000
,
1000
0000
0100
0000
1000
0000
0000
0000
,
0000
0000
1000
0000
0001
0000
0100
0000
,
1000
0000
0110
0000
1000
0000
0100
0000
,
0001
0000
0010
0000
0100
0000
1000
0000
,
1000
0000
0100
0000
1000
0000
0100
0010
,
0000
0001
0010
0000
0001
0000
0000
0000
,
0000
0000
1000
0000
0000
0000
0000
0001
,
1000
0000
0001
0000
0100
0000
0000
0000
,
0002
0000
1000
0000
0000
0000
0003
0000
,
0001
0000
0010
0000
0001
0000
0000
0000
,
1000
0000
0001
0000
0010
0000
0001
0000
,
0001
0000
0010
0000
0001
0000
0000
0000
,
0001
0000
0000
0000
0010
0000
0000
0100
,
0001
0000
0100
0000
0010
0000
0100
0000
,
1000
0000
0001
0000
0100
0000
0001
0000
,
1000
0000
0001
0000
0100
0000
0000
0000
,
0001
0000
1000
0000
0100
0000
0000
0000
,
0001
0000
1000
0000
0010
0000
1000
0000
,
0001
0000
0100
0000
0010
0000
0100
0000
,
0000
0000
1000
0000
0001
0000
0100
0000
,
0000
0000
0000
0000
0001
0000
1000
0010
,
0001
0000
0010
0000
0100
0000
0000
0000
,
1000
0000
0100
0000
0010
0000
0000
0000
,
0001
0000
0010
0000
0100
0000
0000
0000
,
1000
0000
0100
0000
0010
0000
0000
0000
,
1000
0000
0100
0000
0010
0000
0000
0000
,
1000
0000
0100
0000
0010
0000
0000
0000
,
0001
0000
0100
0000
0010
0000
0000
0000
,
0001
0000
0010
0000
0100
0000
0000
0000
,
0000
0000
0000
0000
0000
0000
0000
0000
,
;
