#TITLE:My Hero Academia - Opening 2 Peace Sign;
#SUBTITLE:;
#ARTIST:Dancing Monkeys Project;
#TITLETRANSLIT:;
#SUBTITLETRANSLIT:;
#ARTISTTRANSLIT:;
#GENRE:;
#CREDIT:Gorilla v1.1.3 (Dancing Monkeys v1.06);
#BANNER:;
#BACKGROUND:;
#LYRICSPATH:;
#CDTITLE:;
#MUSIC:My Hero Academia - Opening 2 Peace Sign.mp3;
#OFFSET:-0.757551;
#SAMPLESTART:30.750748;
#SAMPLELENGTH:12.000000;
#SELECTABLE:YES;
#BPMS:0.000000=200.044998
;
#STOPS:
;
#BGCHANGES:;
#KEYSOUNDS:;
#ATTACKS:;

//---------------dance-single - Basic----------------
#NOTES:
     dance-single:
     Basic:
     Easy:
     4:
     0.373780,0.409170,0.011134,0.044535,0.000000,235.000000,234.000000,1.000000,4.000000,0.000000,0.000000,0.373780,0.409170,0.011134,0.044535,0.000000,235.000000,234.000000,1.000000,4.000000,0.000000,0.000000:
// measure 0
1000
0001
1000
0001
,  // measure 1
1000
0001
1000
1000
,  // measure 2
0001
1000
0001
0100
,  // measure 3
1000
0001
1000
0001
,  // measure 4
1000
0001
1000
0001
,  // measure 5
1000
0001
0010
0010
,  // measure 6
1000
0001
0001
0001
,  // measure 7
0001
0000
0000
0010
,  // measure 8
0001
1000
0100
0100
,  // measure 9
1000
0010
0000
0000
,  // measure 10
0001
0100
0100
0000
,  // measure 11
1000
0100
0000
0001
,  // measure 12
0001
1000
0100
0000
,  // measure 13
1000
0010
0000
0001
,  // measure 14
0001
0010
0000
0000
,  // measure 15
1000
0001
0010
0000
,  // measure 16
1000
0001
0000
0000
,  // measure 17
1000
0001
0010
0010
,  // measure 18
0100
0100
0001
0000
,  // measure 19
1000
1000
0001
0000
,  // measure 20
1000
0001
0000
1000
,  // measure 21
1000
0001
0100
0100
,  // measure 22
0000
2000
0000
0000
,  // measure 23
0000
3000
0001
0000
,  // measure 24
1000
0001
0000
1000
,  // measure 25
1000
0001
0100
0100
,  // measure 26
0100
0000
0001
0000
,  // measure 27
1000
1000
0001
0000
,  // measure 28
1000
0010
0001
0000
,  // measure 29
1000
0001
0000
1000
,  // measure 30
1000
0002
0000
0000
,  // measure 31
0003
0000
1000
0000
,  // measure 32
1000
0000
1000
0000
,  // measure 33
1000
0010
0010
0000
,  // measure 34
1000
0001
0010
0010
,  // measure 35
0001
1000
0100
0100
,  // measure 36
1000
0001
0001
0001
,  // measure 37
1000
0100
0010
0010
,  // measure 38
0001
0010
1000
0010
,  // measure 39
1000
0001
0010
0010
,  // measure 40
1000
0100
0010
0000
,  // measure 41
1000
0010
0000
0000
,  // measure 42
1000
0001
0000
0000
,  // measure 43
1000
0001
0000
0000
,  // measure 44
1000
0100
0000
0000
,  // measure 45
1000
0001
0000
2000
,  // measure 46
0000
0000
0000
0000
,  // measure 47
0000
0000
0000
3000
,  // measure 48
1000
0010
0000
0000
,  // measure 49
1001
0010
0100
0001
,  // measure 50
1000
0001
1000
0100
,  // measure 51
0001
1000
0010
0010
,  // measure 52
0001
1000
0001
1000
,  // measure 53
1000
0100
1000
1000
,  // measure 54
1000
0010
0010
0010
,  // measure 55
1000
0001
0010
0100
,  // measure 56
0001
0010
0010
0010
,  // measure 57
1000
1000
0001
0100
,  // measure 58
1000
0100
1000
0001
,  // measure 59
0001
0001
0010
0100
,  // measure 60
0001
1000
0001
0010
,  // measure 61
1000
0100
1000
0010
,  // measure 62
1000
0001
0010
0100
,  // measure 63
0001
0010
1000
0010
,  // measure 64
1000
0100
1000
0001
,  // measure 65
0001
0001
1000
0100
,  // measure 66
1000
0100
1000
0010
,  // measure 67
1000
0001
0010
0010
,  // measure 68
0001
0100
0010
1000
,  // measure 69
0001
0001
1000
1000
,  // measure 70
0001
1000
0100
0100
,  // measure 71
0100
0010
0010
0100
,  // measure 72
1000
0200
0000
0000
,  // measure 73
0000
0000
0300
0000
;

//---------------dance-single - Standard----------------
#NOTES:
     dance-single:
     Standard:
     Medium:
     5:
     0.310158,0.443963,0.022268,0.011134,0.000000,195.000000,193.000000,2.000000,1.000000,0.000000,0.000000,0.310158,0.443963,0.022268,0.011134,0.000000,195.000000,193.000000,2.000000,1.000000,0.000000,0.000000:
0001
0000
1000
0000
0000
0000
0000
0000
,
0001
0000
1000
0000
0000
0000
0000
0000
,
0001
0000
1000
0000
0000
0000
0000
0000
,
1000
0000
0001
0000
0000
0000
0000
0000
,
0001
0000
1000
0000
0000
0000
0000
0000
,
0001
0000
1000
0000
0000
0000
0000
0000
,
0001
0000
1000
0000
0000
0000
0000
0000
,
0001
0000
0000
0000
0000
0000
0010
0000
,
1000
0000
0001
0000
0010
0000
0000
0000
,
0001
0000
1000
0000
0100
0000
0000
0000
,
0001
0000
1000
0000
0010
0000
0000
0000
,
0001
0000
1000
0000
0010
0000
0000
0000
,
1000
0000
0001
0000
0010
0000
0000
0000
,
0001
0000
1000
0000
0100
0000
0000
0000
,
1000
0000
0001
0000
0100
0000
0000
0000
,
0001
0000
0100
0000
0010
0000
0000
0000
,
0001
0000
1000
0000
0000
0000
0000
0000
,
0001
0000
1000
0000
0000
0000
0000
0000
,
0000
0000
0000
0000
1000
0000
0000
0000
,
0000
0000
0001
0000
0100
0000
0000
0000
,
0001
0000
1000
0000
0000
0000
0000
0000
,
1000
0000
0001
0000
0000
0000
0000
0000
,
0000
0000
0002
0000
0000
0000
0000
0000
,
0000
0000
0003
0000
0100
0000
0000
0000
,
0001
0000
1000
0000
0000
0000
0000
0000
,
0001
0000
1000
0000
0000
0000
0000
0000
,
0000
0000
0000
0000
1000
0000
0000
0000
,
0000
0000
0001
0000
0100
0000
0000
0000
,
0000
0000
0000
0000
1000
0000
0000
0000
,
0001
0000
1000
0000
0000
0000
0000
0000
,
1000
0000
0001
0000
0000
0000
0000
0000
,
1000
0000
0000
0000
0000
0000
0000
0010
,
0001
0000
0000
0000
0000
0000
0000
0010
,
1000
0000
0100
0000
0000
0000
0000
1000
,
0001
0000
1000
0000
0000
0000
0000
0000
,
0001
0000
1000
0000
0000
0000
0000
0000
,
0001
0000
1000
0000
0000
0000
0000
0000
,
1000
0000
0010
0000
0000
0000
0000
0000
,
0001
0000
0100
0000
0000
0000
0000
0000
,
0001
0000
1000
0000
0000
0000
0000
0000
,
1000
0000
0010
0000
0000
0000
0000
0000
,
1000
0000
0100
0000
0000
0000
0000
0000
,
0001
0000
1000
0000
0000
0000
0000
0000
,
0001
0000
1000
0000
0000
0000
0000
0000
,
1000
0000
0010
0000
0000
0000
0000
0000
,
0001
0000
1000
0000
0000
0000
0000
0000
,
0001
0000
0100
0000
0000
0000
0010
0000
,
0001
0000
0010
0000
0001
0000
0100
0000
,
0001
0000
1000
0000
0000
0000
0000
0000
,
1100
0000
0000
0000
0000
1000
0001
0000
,
1000
0000
0100
0000
0010
0000
0100
0000
,
0001
0000
0100
0000
0010
0000
0100
0000
,
0001
0000
1000
0000
0010
0000
1000
0000
,
0001
0000
1000
0000
0010
0000
0100
0000
,
0001
0000
0100
0000
1010
0000
0100
0000
,
0001
0000
0010
0000
0001
0000
0100
0000
,
1000
0010
1000
0000
0000
0000
1000
0000
,
0000
1000
0000
0000
0100
0000
0010
0001
,
0001
0000
1000
0000
0010
0000
0100
0000
,
0001
0000
0010
0000
0001
0000
0100
0000
,
0001
0000
1000
0000
0010
0000
1000
0000
,
0001
0000
1000
0000
0010
0000
0100
0000
,
0001
0000
0010
0000
0001
0000
0100
0000
,
1000
0000
1000
0000
0100
0000
1000
0000
,
1000
0000
0010
0000
0100
0000
0100
0000
,
0000
0000
0000
1000
0010
0000
0100
0000
,
1000
0000
0100
0000
1000
0000
0000
0100
,
0001
0000
0100
0000
0010
0000
0000
0000
,
1000
0000
0001
0000
0100
0000
0010
0000
,
0001
0000
0000
0000
0000
0000
0100
0000
,
1000
0000
0001
0000
0010
0000
0000
0000
,
0001
0000
1000
0000
0100
0000
0000
0000
,
1000
0000
0001
0000
0010
0000
0000
0000
,
;

//---------------dance-single - Heavy----------------
#NOTES:
     dance-single:
     Heavy:
     Hard:
     6:
     0.335607,0.484324,0.033402,0.011134,0.000000,211.000000,208.000000,3.000000,1.000000,0.000000,0.000000,0.335607,0.484324,0.033402,0.011134,0.000000,211.000000,208.000000,3.000000,1.000000,0.000000,0.000000:
1000
0000
0100
0000
0000
0000
0000
0000
,
1000
0000
0100
0000
0000
0000
0000
0000
,
1000
0000
0100
0000
0000
0000
0000
0000
,
1000
0000
0010
0000
0000
0000
0000
0000
,
1000
0000
0100
0000
0000
0000
0000
0000
,
0001
0000
0010
0000
0000
0000
0000
0000
,
1000
0000
0100
0000
0000
0000
0000
0000
,
0001
0000
0000
0000
0000
0000
1000
0000
,
0001
0000
0010
0000
0001
0000
0000
0000
,
0001
0000
0010
0000
0100
0000
0000
0000
,
1000
0000
0100
0000
0010
0000
0000
0000
,
1000
0000
0010
0000
0100
0000
0000
0000
,
0001
0000
0010
0000
0001
0000
0000
0000
,
0001
0000
0010
0000
0100
0000
0000
0000
,
0001
0000
0010
0000
0100
0000
0000
0000
,
1000
0000
0001
0000
0100
0010
0000
0000
,
1000
0000
0100
0000
0000
0000
0000
0000
,
1000
0000
0010
0000
0000
0000
0000
0000
,
0000
0000
0001
0000
0001
0000
0000
0000
,
0000
0000
1000
0000
0010
0000
0000
0000
,
1000
0000
0100
0000
0000
0000
0000
0000
,
0001
0000
0100
0000
0000
0000
0000
0000
,
0000
0000
0002
0000
0000
0000
0000
0000
,
0000
0000
1003
0000
0010
0000
0000
0000
,
0001
0000
0010
0000
0000
0000
0000
0000
,
1000
0000
0100
0000
0000
0000
0000
0000
,
0000
0000
0001
0000
0001
0000
0000
0000
,
0000
0000
1000
0000
0010
0000
0000
0000
,
0000
0000
0001
0000
0001
0000
0000
0000
,
1000
0000
0100
0000
0000
0000
0000
0000
,
0001
0000
0100
0000
0000
0000
0000
0000
,
1000
0000
0000
0000
0000
0000
0000
0010
,
0001
0000
0000
0000
0000
0000
0000
0100
,
0001
0000
1000
0000
0000
0000
0000
0001
,
1000
0000
0100
0000
0000
0000
0000
0000
,
1000
0000
0010
0000
0000
0000
0000
0000
,
1000
0000
0100
0000
0000
0000
0000
0000
,
0001
0000
0000
0000
0000
1000
0000
0000
,
1000
0000
0000
0000
0000
0001
0000
0000
,
1000
0000
0100
0000
0000
0000
0000
0000
,
0001
0000
0000
0000
0000
1000
0000
0000
,
0001
0000
0000
0000
0000
1000
0000
0000
,
1000
0000
0100
0000
0000
0000
0000
0000
,
0001
0000
0100
0000
0000
0000
0000
0000
,
0001
0000
0000
0000
0000
1000
0000
0000
,
1000
0000
0100
0000
0000
0000
0000
0000
,
0000
0000
0001
0000
0000
1000
0001
0000
,
1000
0000
0100
0000
0010
0000
0001
0000
,
0001
0000
0010
0000
0000
0000
0000
0000
,
1010
0000
0000
1000
0000
0010
0000
0100
,
0001
0000
0010
0000
0001
0000
1000
0100
,
0001
0000
1000
0000
0010
1000
0000
0000
,
1000
0000
0001
0000
0100
0000
0001
0000
,
1000
0000
0010
0000
0100
0000
0000
0001
,
0001
0000
1000
0000
1001
0000
0010
0100
,
1000
0000
0100
0000
0010
0000
0001
0000
,
1000
0010
1000
0000
0000
0000
1000
0001
,
0000
1000
0000
0000
0001
0000
0100
0010
,
1000
0000
0010
0000
0100
0000
0000
0001
,
1000
0000
0100
0000
0010
0000
0001
0000
,
1000
0000
0001
0000
0100
0000
0001
0000
,
1000
0000
0010
0000
0100
0000
0000
0001
,
1000
0000
0100
0000
0010
0000
0001
0000
,
1000
0000
1000
0000
0100
1000
0001
0000
,
0001
0001
1000
0000
0001
0000
0000
0000
,
0000
0000
0000
1000
0100
0010
0001
0000
,
0110
0000
0001
0000
0100
0001
0000
1000
,
1000
0000
0001
0000
0100
0010
0000
0000
,
1000
0000
0010
0010
0100
0000
0001
0000
,
0001
0010
0000
0000
0000
0000
0100
0000
,
0001
0000
0010
0000
0001
0000
0000
0000
,
0001
0000
0010
0000
0100
0000
0000
0000
,
0001
0000
0010
0000
0100
0000
0000
0000
,
;
