#VERSION:0.83;
#TITLE:MY DEAR DOCTOR - NIGHTCORE;
#SUBTITLE:;
#ARTIST:Unknown;
#TITLETRANSLIT:;
#SUBTITLETRANSLIT:;
#ARTISTTRANSLIT:;
#GENRE:;
#ORIGIN:;
#CREDIT:Knox;
#BANNER:;
#BACKGROUND:;
#PREVIEWVID:;
#JACKET:;
#CDIMAGE:;
#DISCIMAGE:;
#LYRICSPATH:;
#CDTITLE:;
#MUSIC:MY DEAR DOCTOR - NIGHTCORE.mp3;
#OFFSET:-1.406939;
#SAMPLESTART:38.481407;
#SAMPLELENGTH:12.000000;
#SELECTABLE:YES;
#BPMS:0.000=168.310;
#STOPS:;
#DELAYS:;
#WARPS:;
#TIMESIGNATURES:0.000=4=4;
#TICKCOUNTS:0.000=4;
#COMBOS:0.000=1;
#SPEEDS:0.000=1.000=0.000=0;
#SCROLLS:0.000=1.000;
#FAKES:;
#LABELS:0.000=Song Start;
#BGCHANGES:;
#KEYSOUNDS:;
#ATTACKS:
;

//---------------dance-single - Basic----------------
#NOTEDATA:;
#CHARTNAME:Basic;
#STEPSTYPE:dance-single;
#DESCRIPTION:Basic;
#CHARTSTYLE:;
#DIFFICULTY:Easy;
#METER:4;
#RADARVALUES:0.190324,0.172602,0.000000,0.005394,0.000000,247.000000,247.000000,0.000000,1.000000,0.000000,0.000000,0.000000,0.000000,0.000000,0.190324,0.172602,0.000000,0.005394,0.000000,247.000000,247.000000,0.000000,1.000000,0.000000,0.000000,0.000000,0.000000,0.000000;
#CREDIT:Basic;
#NOTES:
// measure 0
0001
0000
1000
0000
,  // measure 1
0001
0000
0010
0000
,  // measure 2
0001
0000
0100
0000
,  // measure 3
1000
0000
0010
0000
,  // measure 4
0001
0000
1000
0000
,  // measure 5
0010
0000
0100
0000
,  // measure 6
0001
0000
0010
0000
,  // measure 7
1000
0000
0100
0000
,  // measure 8
0010
0000
0010
0000
,  // measure 9
0010
0000
0100
0000
,  // measure 10
1000
0000
0100
0000
,  // measure 11
0001
0000
0100
0000
,  // measure 12
0001
0000
0100
0000
,  // measure 13
1000
0000
0100
0000
,  // measure 14
1000
0000
0100
0000
,  // measure 15
0001
0000
0001
0000
,  // measure 16
1000
0000
1000
0000
,  // measure 17
0010
0000
0010
0000
,  // measure 18
0010
0000
0100
0000
,  // measure 19
0100
0000
1000
0000
,  // measure 20
0001
0000
0010
0000
,  // measure 21
1000
0000
0000
0000
,  // measure 22
0000
0000
0000
0000
,  // measure 23
1000
0000
1000
0000
,  // measure 24
0010
0000
0010
0000
,  // measure 25
0001
0000
0001
0000
,  // measure 26
0010
0000
0010
0000
,  // measure 27
0100
0000
0100
0000
,  // measure 28
1000
0000
1000
0000
,  // measure 29
0001
0000
1000
0000
,  // measure 30
0001
0000
0000
0000
,  // measure 31
1000
0000
0010
0000
,  // measure 32
1000
0000
0100
0000
,  // measure 33
0001
0000
0010
0000
,  // measure 34
0001
0000
0100
0000
,  // measure 35
0001
0000
0000
0000
,  // measure 36
1000
0000
0010
0000
,  // measure 37
1000
0000
0010
0000
,  // measure 38
1000
0000
0000
0000
,  // measure 39
0001
0000
1000
0000
,  // measure 40
0010
0000
0100
0000
,  // measure 41
1000
0000
0100
0000
,  // measure 42
0001
0000
0100
0000
,  // measure 43
1000
0000
0010
0000
,  // measure 44
1000
0000
0100
0000
,  // measure 45
0001
0000
0100
0000
,  // measure 46
0010
0000
0001
0000
,  // measure 47
0100
0000
0010
0000
,  // measure 48
0001
0000
1000
0000
,  // measure 49
0001
0000
0010
0000
,  // measure 50
0001
0000
1000
0000
,  // measure 51
0010
0000
0100
0000
,  // measure 52
0001
0000
1000
0000
,  // measure 53
0001
0000
0100
0000
,  // measure 54
1000
0000
0100
0000
,  // measure 55
1000
0000
0010
0000
,  // measure 56
0001
0000
0010
0000
,  // measure 57
1000
0000
0100
0000
,  // measure 58
0001
0000
0010
0000
,  // measure 59
1000
0000
0100
0000
,  // measure 60
0001
0000
0010
0000
,  // measure 61
0001
0000
0100
0000
,  // measure 62
1000
0000
0100
0000
,  // measure 63
0001
0000
0010
0000
,  // measure 64
0100
0000
0100
0000
,  // measure 65
0001
0000
0010
0000
,  // measure 66
1000
0000
1000
0000
,  // measure 67
0001
0000
0010
0000
,  // measure 68
0001
0000
1000
0000
,  // measure 69
0010
0000
0001
0000
,  // measure 70
0010
0000
1000
0000
,  // measure 71
0010
0000
0100
0000
,  // measure 72
0001
0000
1000
0000
,  // measure 73
0010
0000
1000
0000
,  // measure 74
0010
0000
0001
0000
,  // measure 75
0010
0000
1000
0000
,  // measure 76
0010
0000
1000
0000
,  // measure 77
0010
0000
1000
0000
,  // measure 78
0100
0000
0001
0000
,  // measure 79
1000
0000
0010
0000
,  // measure 80
1000
0000
0100
0000
,  // measure 81
0001
0000
0010
0000
,  // measure 82
1000
0000
0010
0000
,  // measure 83
0001
0000
0100
0000
,  // measure 84
0001
0000
1000
0000
,  // measure 85
0001
0000
0100
0000
,  // measure 86
1000
0000
0100
0000
,  // measure 87
1000
0000
0000
0000
,  // measure 88
0001
0000
1000
0000
,  // measure 89
0010
0000
0100
0000
,  // measure 90
0001
0000
0100
0000
,  // measure 91
1000
0000
0100
0000
,  // measure 92
0001
0000
0100
0000
,  // measure 93
0010
0000
1000
0000
,  // measure 94
0001
0000
0000
0000
,  // measure 95
1000
0000
0100
0000
,  // measure 96
0010
0000
1000
0000
,  // measure 97
0010
0000
0001
0000
,  // measure 98
0010
0000
1000
0000
,  // measure 99
0010
0000
0100
0000
,  // measure 100
1000
0000
0001
0000
,  // measure 101
1000
0000
0010
0000
,  // measure 102
0100
0000
1000
0000
,  // measure 103
0010
0000
1000
0000
,  // measure 104
0010
0000
0001
0000
,  // measure 105
0010
0000
1000
0000
,  // measure 106
0001
0000
0100
0000
,  // measure 107
0100
0000
0001
0000
,  // measure 108
0100
0000
0100
0000
,  // measure 109
0001
0000
0100
0000
,  // measure 110
1000
0000
0001
0000
,  // measure 111
0001
0000
0100
0000
,  // measure 112
1000
0000
0001
0000
,  // measure 113
1000
0000
0010
0000
,  // measure 114
1000
0000
0001
0000
,  // measure 115
0010
0000
1000
0000
,  // measure 116
0010
0000
0001
0000
,  // measure 117
0010
0000
0100
0000
,  // measure 118
1000
0000
0001
0000
,  // measure 119
1000
0000
0010
0000
,  // measure 120
0100
0000
0001
0000
,  // measure 121
1000
0000
0010
0000
,  // measure 122
0100
0000
0001
0000
,  // measure 123
0010
0000
1000
0000
,  // measure 124
0100
0000
0001
0000
,  // measure 125
1000
0000
0010
0000
,  // measure 126
1000
0000
0010
0000
,  // measure 127
2000
0000
0000
0000
,  // measure 128
3000
0000
0000
0000
;

//---------------dance-single - Basic----------------
#NOTEDATA:;
#CHARTNAME:;
#STEPSTYPE:dance-single;
#DESCRIPTION:Basic;
#CHARTSTYLE:;
#DIFFICULTY:Medium;
#METER:4;
#RADARVALUES:0.372172,0.345203,0.053938,0.070119,0.000000,483.000000,473.000000,10.000000,13.000000,0.000000,0.000000,0.000000,0.000000,0.000000,0.372172,0.345203,0.053938,0.070119,0.000000,483.000000,473.000000,10.000000,13.000000,0.000000,0.000000,0.000000,0.000000,0.000000;
#CREDIT:;
#NOTES:
// measure 0
0001
0000
1000
0000
,  // measure 1
0001
0000
0010
0000
,  // measure 2
0001
0000
0100
0000
,  // measure 3
1000
0000
0010
0000
,  // measure 4
0001
0000
1000
0000
,  // measure 5
0010
0000
0100
0000
,  // measure 6
0001
0000
0010
0000
,  // measure 7
1000
1000
0100
0100
,  // measure 8
0010
0010
0010
1001
,  // measure 9
0010
0010
0100
0100
,  // measure 10
1000
1000
0100
0100
,  // measure 11
0001
0001
0100
0100
,  // measure 12
0001
0001
0100
0100
,  // measure 13
1000
1000
0100
0100
,  // measure 14
1000
1000
0100
0100
,  // measure 15
0001
0010
0001
0001
,  // measure 16
1000
0100
1000
1000
,  // measure 17
0010
0001
0010
0001
,  // measure 18
0010
1000
0100
1000
,  // measure 19
0100
0100
1000
1000
,  // measure 20
0001
0001
0010
0010
,  // measure 21
2002
0000
0000
0000
,  // measure 22
0000
0000
0000
3003
,  // measure 23
1000
0100
1000
1000
,  // measure 24
0010
0001
0010
0010
,  // measure 25
0001
0010
0001
0001
,  // measure 26
0010
0100
0010
0010
,  // measure 27
0100
1000
0100
0100
,  // measure 28
1000
0100
1000
1000
,  // measure 29
0001
0001
1000
1000
,  // measure 30
2002
0000
0000
3003
,  // measure 31
1001
1000
0010
0010
,  // measure 32
1000
1000
0100
0100
,  // measure 33
0001
0001
0010
0010
,  // measure 34
0001
0001
0100
0100
,  // measure 35
0022
0000
0000
0033
,  // measure 36
1000
1000
0010
0010
,  // measure 37
1000
1000
0010
0010
,  // measure 38
2200
0000
0000
3300
,  // measure 39
1001
0001
1000
1000
,  // measure 40
0010
0010
0100
0100
,  // measure 41
1000
1000
0100
0100
,  // measure 42
0001
0001
0100
0100
,  // measure 43
1000
1000
0010
0010
,  // measure 44
1000
1000
0100
0010
,  // measure 45
0001
0001
0100
0100
,  // measure 46
0010
0010
0001
0001
,  // measure 47
0100
0100
0010
0010
,  // measure 48
0001
0001
1000
1000
,  // measure 49
0001
0001
0010
0010
,  // measure 50
0001
0001
1000
1000
,  // measure 51
0010
0010
0100
0100
,  // measure 52
0001
0001
1000
1000
,  // measure 53
0001
0001
0100
0100
,  // measure 54
1000
1000
0100
0100
,  // measure 55
1000
1000
0010
0010
,  // measure 56
0001
0001
0010
0010
,  // measure 57
1000
1000
0100
0100
,  // measure 58
0001
0001
0010
0010
,  // measure 59
1000
0001
0100
0100
,  // measure 60
0001
1000
0010
0010
,  // measure 61
0001
1000
0100
0100
,  // measure 62
1000
0001
0100
0100
,  // measure 63
0001
1000
0010
0010
,  // measure 64
0100
0010
0100
0100
,  // measure 65
0001
1000
0010
0010
,  // measure 66
1000
0001
1000
1000
,  // measure 67
0001
1000
0010
0010
,  // measure 68
0001
0001
1000
1000
,  // measure 69
0010
0010
0001
0001
,  // measure 70
0010
0010
1000
1000
,  // measure 71
0010
0010
0100
0100
,  // measure 72
0001
0001
1000
1000
,  // measure 73
0010
0010
1000
1000
,  // measure 74
0010
0010
0001
0001
,  // measure 75
0010
0010
1000
1000
,  // measure 76
0010
0010
1000
1000
,  // measure 77
0010
0010
1000
1000
,  // measure 78
0100
0100
0001
0001
,  // measure 79
1000
1000
0010
0010
,  // measure 80
1000
1000
0100
0100
,  // measure 81
0001
0001
0010
0010
,  // measure 82
1000
1000
0010
0010
,  // measure 83
0001
0001
0100
0100
,  // measure 84
0001
0001
1000
1000
,  // measure 85
0001
0001
0100
0100
,  // measure 86
1000
1000
0100
0100
,  // measure 87
2002
0000
0000
3003
,  // measure 88
0001
0001
1000
1000
,  // measure 89
0010
0010
0100
0100
,  // measure 90
0001
0001
0100
0100
,  // measure 91
1000
1000
0100
0100
,  // measure 92
0001
0001
0100
0100
,  // measure 93
0010
0010
1000
1000
,  // measure 94
2002
0000
0000
3003
,  // measure 95
1001
0100
0100
0010
,  // measure 96
0010
1000
1000
0010
,  // measure 97
0010
0001
0001
0010
,  // measure 98
0010
1000
1000
0010
,  // measure 99
0010
0100
0100
1000
,  // measure 100
1000
0001
0001
1000
,  // measure 101
1000
0010
0010
0100
,  // measure 102
0100
1000
1000
0010
,  // measure 103
0010
1000
1000
0010
,  // measure 104
0010
0001
0001
0010
,  // measure 105
0010
1000
1000
0001
,  // measure 106
0001
0100
0100
1000
,  // measure 107
0100
0010
0001
0010
,  // measure 108
0100
1000
0100
0010
,  // measure 109
0001
0010
0100
1000
,  // measure 110
1000
1000
0001
0001
,  // measure 111
0001
0100
0100
1000
,  // measure 112
1000
0001
0001
1000
,  // measure 113
1000
0010
0010
1000
,  // measure 114
1000
0001
0001
0010
,  // measure 115
0010
1000
1000
0010
,  // measure 116
0010
0001
0001
0010
,  // measure 117
0010
0100
0100
1000
,  // measure 118
1000
0001
0001
1000
,  // measure 119
1000
0010
0010
0100
,  // measure 120
0100
0001
0001
1000
,  // measure 121
1000
0010
0010
0100
,  // measure 122
0100
0001
0001
0010
,  // measure 123
0010
1000
1000
0100
,  // measure 124
0100
0001
0001
1000
,  // measure 125
1000
0010
0010
1000
,  // measure 126
1000
0010
0010
1000
,  // measure 127
2000
0000
0000
0000
,  // measure 128
3000
0000
0000
0000
;
