#TITLE:Move Along;
#SUBTITLE:;
#ARTIST:All American Rejects;
#TITLETRANSLIT:;
#SUBTITLETRANSLIT:;
#ARTISTTRANSLIT:;
#GENRE:;
#CREDIT:Gorilla v1.1.3 (Dancing Monkeys v1.06);
#BANNER:ab67616d0000b273953e4b74c59ff12bd3476751.png;
#BACKGROUND:ab67616d00001e02beb649016c1174ff8262d2f4.png;
#LYRICSPATH:;
#CDTITLE:;
#MUSIC:The All-American Rejects - Move Along.mp3;
#OFFSET:-0.587021;
#SAMPLESTART:55.195354;
#SAMPLELENGTH:12.000000;
#SELECTABLE:YES;
#BPMS:0.000000=109.873337
;
#STOPS:
;
#BGCHANGES:;
#KEYSOUNDS:;
#ATTACKS:;

//---------------dance-single - Basic----------------
#NOTES:
     dance-single:
     Basic:
     Easy:
     3:
     0.146484,0.178145,0.000000,0.032449,0.000000,158.000000,158.000000,0.000000,5.000000,0.000000,0.000000,0.146484,0.178145,0.000000,0.032449,0.000000,158.000000,158.000000,0.000000,5.000000,0.000000,0.000000:
// measure 0
0002
0000
0003
0000
,  // measure 1
1000
0000
0010
0000
,  // measure 2
0002
0000
0000
0000
,  // measure 3
0000
0000
0003
0000
,  // measure 4
1000
0000
0100
0000
,  // measure 5
0001
0000
0100
0000
,  // measure 6
0010
0000
0100
0000
,  // measure 7
0001
0000
0100
0000
,  // measure 8
1000
0000
0100
0000
,  // measure 9
1000
0000
0100
0000
,  // measure 10
1000
0000
0010
0000
,  // measure 11
1000
0000
0100
0000
,  // measure 12
0001
0000
0100
0000
,  // measure 13
0001
0000
0010
0000
,  // measure 14
1000
0000
0100
0000
,  // measure 15
1000
1000
1000
1000
,  // measure 16
0002
0000
0000
0000
,  // measure 17
0000
0000
0003
0000
,  // measure 18
2000
0000
0000
0000
,  // measure 19
0000
3000
0001
0001
,  // measure 20
0000
0010
0001
0010
,  // measure 21
0001
1000
0010
1000
,  // measure 22
1000
0001
0001
1000
,  // measure 23
1000
1000
0000
1000
,  // measure 24
0000
0100
0010
1000
,  // measure 25
1000
0001
0100
0010
,  // measure 26
0001
1000
0010
1000
,  // measure 27
0001
0010
0100
0000
,  // measure 28
0001
0000
0100
0000
,  // measure 29
0001
0000
0010
0000
,  // measure 30
1000
0000
1000
0000
,  // measure 31
0001
0000
0100
0000
,  // measure 32
1000
0000
0010
0000
,  // measure 33
1000
0000
0010
0000
,  // measure 34
1000
0000
0100
0000
,  // measure 35
0010
0000
1000
0000
,  // measure 36
1000
0000
0100
0000
,  // measure 37
0001
0000
0001
0000
,  // measure 38
1000
0000
0100
0000
,  // measure 39
0001
0000
0010
0000
,  // measure 40
1000
0000
0010
0000
,  // measure 41
1000
0000
0010
0000
,  // measure 42
0001
0000
0010
0000
,  // measure 43
1000
0000
0010
0010
,  // measure 44
0010
1000
0100
0010
,  // measure 45
1000
0001
0100
0010
,  // measure 46
0001
1000
0010
0010
,  // measure 47
0001
0001
0001
0001
,  // measure 48
1000
1000
0100
0010
,  // measure 49
1000
0001
0100
0100
,  // measure 50
0010
0010
0010
0010
,  // measure 51
0001
1000
0010
0000
,  // measure 52
1000
0001
0100
0010
,  // measure 53
0001
1000
0010
0100
,  // measure 54
1000
1000
1000
1000
,  // measure 55
1000
0000
1000
0100
,  // measure 56
1000
0001
0100
0010
,  // measure 57
1000
1000
0100
0010
,  // measure 58
0001
1000
0010
1000
,  // measure 59
0001
1000
0001
0010
,  // measure 60
2000
0000
0000
0000
,  // measure 61
3000
0000
0000
0000
;
