#VERSION:0.83;
#TITLE:onlymp3.to - Syndrome Mortal Kombat Hard Trance Techno Remix -qUnmPMoFUZs-192k-1696852427;
#SUBTITLE:;
#ARTIST:Dancing Monkeys Project;
#TITLETRANSLIT:;
#SUBTITLETRANSLIT:;
#ARTISTTRANSLIT:;
#GENRE:;
#ORIGIN:;
#CREDIT:Gorilla v1.1.3 (Dancing Monkeys v1.06);
#BANNER:unnamed.png;
#BACKGROUND:mortal-kombat-ps360-button-1642626483976.jpg;
#PREVIEWVID:;
#JACKET:;
#CDIMAGE:;
#DISCIMAGE:;
#LYRICSPATH:;
#CDTITLE:;
#MUSIC:New Project.ogg;
#OFFSET:-1.309646;
#SAMPLESTART:43.563812;
#SAMPLELENGTH:12.000000;
#SELECTABLE:YES;
#BPMS:0.000=141.998;
#STOPS:;
#DELAYS:;
#WARPS:;
#TIMESIGNATURES:0.000=4=4;
#TICKCOUNTS:0.000=4;
#COMBOS:0.000=1;
#SPEEDS:0.000=4.000=0.000=0;
#SCROLLS:0.000=1.000;
#FAKES:;
#LABELS:0.000=Song Start;
#BGCHANGES:;
#KEYSOUNDS:;
#ATTACKS:
;

//---------------dance-single - Basic----------------
#NOTEDATA:;
#CHARTNAME:Basic;
#STEPSTYPE:dance-single;
#DESCRIPTION:Basic;
#CHARTSTYLE:;
#DIFFICULTY:Easy;
#METER:6;
#RADARVALUES:0.325022,0.342700,0.085675,0.000000,0.000000,239.000000,230.000000,9.000000,0.000000,0.000000,0.000000,0.000000,0.000000,0.000000,0.325022,0.342700,0.085675,0.000000,0.000000,239.000000,230.000000,9.000000,0.000000,0.000000,0.000000,0.000000,0.000000,0.000000;
#CREDIT:Basic;
#NOTES:
// measure 0
1001
0100
0010
0000
,  // measure 1
1000
0000
0010
0000
,  // measure 2
1000
0000
0100
0100
,  // measure 3
0001
0000
0100
0010
,  // measure 4
0100
0001
0100
0000
,  // measure 5
1001
0000
0100
0010
,  // measure 6
1000
0010
0100
0000
,  // measure 7
1001
0000
1000
0100
,  // measure 8
0001
0100
0001
0100
,  // measure 9
1000
0100
0010
0100
,  // measure 10
1000
0010
0100
0010
,  // measure 11
0001
1000
0010
0010
,  // measure 12
1000
0100
0001
0100
,  // measure 13
0010
0100
1000
0001
,  // measure 14
0010
0100
1000
0100
,  // measure 15
0001
0010
0100
0010
,  // measure 16
1000
0100
0001
0100
,  // measure 17
0010
0100
0001
0010
,  // measure 18
1000
0100
1000
0100
,  // measure 19
0001
0100
0001
0100
,  // measure 20
1000
0010
1000
0010
,  // measure 21
0001
0010
0001
0010
,  // measure 22
0001
0010
1000
0010
,  // measure 23
0001
0010
1000
0100
,  // measure 24
0001
0100
1000
0100
,  // measure 25
0001
0100
1001
0010
,  // measure 26
1000
0100
1001
0100
,  // measure 27
1001
0100
1000
0010
,  // measure 28
1000
0010
1000
0010
,  // measure 29
1000
0100
0001
0100
,  // measure 30
0001
0100
1000
0010
,  // measure 31
0001
0010
1000
0100
,  // measure 32
0001
0010
0100
0010
,  // measure 33
0001
0100
0010
0100
,  // measure 34
1000
0001
1000
0100
,  // measure 35
0001
1000
0100
0010
,  // measure 36
0001
0010
0100
0010
,  // measure 37
1000
0010
0100
0100
,  // measure 38
1000
0000
0100
0010
,  // measure 39
1000
0010
0100
0001
,  // measure 40
0010
0100
0010
1000
,  // measure 41
0001
0100
0010
0010
,  // measure 42
1000
0100
0010
1000
,  // measure 43
0001
0100
0010
0010
,  // measure 44
0001
0010
0100
0100
,  // measure 45
0001
0010
0100
0100
,  // measure 46
1000
0001
0100
0100
,  // measure 47
0001
0100
1000
0010
,  // measure 48
1000
0010
0001
0100
,  // measure 49
1000
0010
0001
0010
,  // measure 50
0001
0010
1000
0010
,  // measure 51
1000
0100
0010
0001
,  // measure 52
1000
0010
0001
0010
,  // measure 53
0001
0100
1000
0100
,  // measure 54
0001
0010
1001
0010
,  // measure 55
1001
0100
1000
0100
,  // measure 56
0001
0100
0001
0100
,  // measure 57
0001
1000
0100
0010
,  // measure 58
1001
0010
1000
0010
,  // measure 59
0001
0100
0010
0000
,  // measure 60
1000
0000
0000
0000
;

//---------------dance-single - Standard----------------
#NOTEDATA:;
#CHARTNAME:Standard;
#STEPSTYPE:dance-single;
#DESCRIPTION:Standard;
#CHARTSTYLE:;
#DIFFICULTY:Medium;
#METER:7;
#RADARVALUES:0.418856,0.428376,0.019039,0.000000,0.000000,308.000000,306.000000,2.000000,0.000000,0.000000,0.000000,0.000000,0.000000,0.000000,0.418856,0.428376,0.019039,0.000000,0.000000,308.000000,306.000000,2.000000,0.000000,0.000000,0.000000,0.000000,0.000000,0.000000;
#CREDIT:Standard;
#NOTES:
0001
0000
1000
0000
0100
0000
0000
0000
,
1000
0000
0000
0000
0000
0000
0000
0000
,
0001
0000
0000
0000
0100
0000
0100
0000
,
1000
0000
0100
0000
0010
0000
0001
0000
,
0011
0000
0001
0000
0100
0000
0010
0000
,
1000
0000
0100
0000
0010
0000
0001
0000
,
1000
0000
1000
0001
0010
0000
0000
0000
,
0001
0000
0000
0000
0100
0000
0100
0000
,
1000
0000
0001
0100
0010
0000
0010
0000
,
1000
0000
0100
0000
0010
0000
0001
0000
,
0001
0000
0010
0000
0100
0000
1000
0000
,
1000
0000
0000
0001
1000
0100
0010
0000
,
0001
0100
0010
0001
0100
0000
0010
0000
,
0001
0010
0100
0001
0010
0000
0100
0000
,
1000
0010
0100
1000
0010
0000
0100
0000
,
1000
0000
0001
0100
0010
0000
0010
0000
,
0001
0100
0010
0001
0100
0000
0010
0000
,
0001
0010
0100
0001
0010
0000
0100
0000
,
1000
0010
0100
1000
0010
0000
0100
0000
,
1000
0100
0010
1000
0100
0000
0010
0000
,
1000
0010
0100
1000
0010
0000
0100
0000
,
1000
0100
0010
1000
0100
0000
0010
0000
,
0001
0100
0010
0001
0100
0000
0010
0000
,
0001
0010
0100
0001
0010
0000
0100
0000
,
1000
0100
0010
1000
0100
0000
0010
0000
,
0001
0010
0100
0001
0010
0000
0100
0000
,
1000
0010
0100
1000
0010
0000
0100
0000
,
0001
0100
0010
0001
0100
0000
0010
0000
,
0001
0100
0010
0001
0100
0000
0010
0000
,
1000
0100
0010
1000
0100
0000
0010
0000
,
0001
0010
0100
0001
0010
0000
0100
0000
,
1000
0000
0001
0100
0010
0000
0010
0000
,
1000
0000
0100
0000
0010
0000
0001
0000
,
1000
0000
0100
0000
0010
0000
0001
0000
,
0001
0000
0000
0000
0100
0000
0100
0000
,
1000
0000
0100
0000
0010
0000
0001
0000
,
1000
0000
0010
0000
0100
0000
0001
0000
,
1000
0000
0001
0100
0010
0000
0010
0000
,
1000
0000
0100
0000
0010
0000
0001
0000
,
1000
0000
0001
0100
0010
0000
0010
0000
,
1000
0000
0001
0100
0010
0000
0010
0000
,
1000
0000
0001
0100
0010
0000
0010
0000
,
0001
0000
1000
0010
0100
0000
0100
0000
,
1000
0000
0001
0100
0010
0000
0010
0000
,
1000
0000
0001
0100
0010
0000
0010
0000
,
0001
0000
1000
0010
0100
0000
0100
0000
,
1000
0000
0001
0010
0100
0000
0100
0000
,
0001
0010
0001
0000
1001
0000
0001
0010
,
0001
0100
0010
0001
0100
0000
0010
0000
,
0001
0100
0010
0001
0100
0000
0010
0000
,
1000
0010
0100
1000
0010
0000
0100
0000
,
0001
0010
0100
0001
0010
0000
0100
0000
,
0001
0010
0100
0001
0010
0000
0100
0000
,
0001
0100
0010
0001
0100
0000
0010
0000
,
0001
0100
0010
0001
0100
0000
0010
0000
,
0001
0010
0100
0001
0010
0000
0100
0000
,
0001
0100
0010
0001
0100
0000
0010
0000
,
1000
0100
0010
1000
0100
0000
0010
0000
,
0001
0100
0010
0001
0100
0000
0010
0000
,
0001
0000
1000
0000
0100
0000
0000
0000
,
1000
0000
0000
0000
0000
0000
0000
0000
,
;

//---------------dance-single - Heavy----------------
#NOTEDATA:;
#CHARTNAME:Heavy;
#STEPSTYPE:dance-single;
#DESCRIPTION:Heavy;
#CHARTSTYLE:;
#DIFFICULTY:Hard;
#METER:8;
#RADARVALUES:0.496372,0.456934,0.019039,0.000000,0.000000,365.000000,363.000000,2.000000,0.000000,0.000000,0.000000,0.000000,0.000000,0.000000,0.496372,0.456934,0.019039,0.000000,0.000000,365.000000,363.000000,2.000000,0.000000,0.000000,0.000000,0.000000,0.000000,0.000000;
#CREDIT:Heavy;
#NOTES:
1000
0000
0001
0000
0010
0000
0100
0000
,
1000
0000
0000
0000
0000
0000
0000
0000
,
1000
0000
0000
0100
1000
0000
1000
0000
,
0001
0000
0100
0000
0010
0000
0100
0000
,
0110
0000
0010
0000
0001
0100
0010
0000
,
0001
0000
0100
0000
0010
0000
0100
0010
,
1000
0001
0001
0100
0010
0000
0000
0000
,
1000
0000
0000
0100
1000
0000
1000
0000
,
1000
0000
0001
0100
0010
0000
0010
0010
,
0001
0000
0100
0000
0010
0000
0100
0010
,
0001
0000
0010
0000
0100
0000
0010
0100
,
0001
0000
0000
1000
0100
1000
0001
1000
,
0001
1000
0001
0100
0001
0000
1000
0010
,
0001
1000
0001
0010
0001
0000
1000
0100
,
1000
0001
1000
0010
1000
0000
0001
0100
,
1000
0000
0001
0100
0010
0000
0010
0010
,
0001
1000
0001
0100
0001
0000
1000
0010
,
0001
1000
0001
0010
0001
0000
1000
0100
,
1000
0001
1000
0010
1000
0000
0001
0100
,
1000
0001
1000
0010
1000
0000
0001
0100
,
0001
1000
0001
0100
0001
0000
1000
0010
,
1000
0001
1000
0010
1000
0000
0001
0100
,
0001
1000
0001
0100
0001
0000
1000
0010
,
0001
1000
0001
0010
0001
0000
1000
0100
,
0001
1000
0001
0010
0001
0000
1000
0100
,
0001
1000
0001
0100
0001
0000
1000
0010
,
1000
0001
1000
0010
1000
0000
0001
0100
,
0001
1000
0001
0100
0001
0000
1000
0010
,
0001
1000
0001
0010
0001
0000
1000
0100
,
1000
0001
1000
0010
1000
0000
0001
0100
,
1000
0001
1000
0010
1000
0000
0001
0100
,
1000
0000
0001
0100
0010
0000
0010
0010
,
0001
0000
0100
0000
0010
0000
0100
0010
,
0001
0000
0010
0000
0100
0000
0010
0100
,
1000
0000
0000
0100
1000
0000
1000
0000
,
0001
0000
0100
0000
0010
0000
0100
0010
,
0001
0000
0100
0000
0010
0000
0100
0010
,
1000
0000
0001
0100
0010
0000
0010
0010
,
0001
0000
0100
0000
0010
0000
0100
0010
,
1000
0000
0001
0100
0010
0000
0010
0010
,
0001
0000
1000
0010
0100
0000
0100
0100
,
1000
0000
0001
0100
0010
0000
0010
0010
,
0001
0000
1000
0010
0100
0000
0100
0100
,
1000
0000
0001
0010
0100
0000
0100
0100
,
1000
0000
0001
0100
0010
0000
0010
0010
,
1000
0000
0001
0010
0100
0000
0100
0100
,
0001
0000
1000
0010
0100
0000
0100
0100
,
1000
0100
0010
0000
0011
0000
1000
0100
,
0001
1000
0001
0100
0001
0000
1000
0010
,
0001
1000
0001
0010
0001
0000
1000
0100
,
1000
0001
1000
0010
1000
0000
0001
0100
,
1000
0001
1000
0100
1000
0000
0001
0010
,
1000
0001
1000
0100
1000
0000
0001
0010
,
1000
0001
1000
0100
1000
0000
0001
0010
,
1000
0001
1000
0100
1000
0000
0001
0010
,
1000
0001
1000
0100
1000
0000
0001
0010
,
0001
1000
0001
0010
0001
0000
1000
0100
,
0001
1000
0001
0010
0001
0000
1000
0100
,
1000
0001
1000
0010
1000
0000
0001
0100
,
1000
0000
0001
0000
0010
0000
0100
0000
,
1000
0000
0000
0000
0000
0000
0000
0000
,
;
