#TITLE:Mood;
#SUBTITLE:;
#ARTIST:24Goldn;
#TITLETRANSLIT:;
#SUBTITLETRANSLIT:;
#ARTISTTRANSLIT:;
#GENRE:;
#CREDIT:Gorilla v1.1.3 (Dancing Monkeys v1.06);
#BANNER:;
#BACKGROUND:;
#LYRICSPATH:;
#CDTITLE:;
#MUSIC:24kGoldn - Mood.mp3;
#OFFSET:-0.102676;
#SAMPLESTART:33.059593;
#SAMPLELENGTH:12.000000;
#SELECTABLE:YES;
#BPMS:0.000000=142.000000
;
#STOPS:
;
#BGCHANGES:;
#KEYSOUNDS:;
#ATTACKS:;

//---------------dance-single - Basic----------------
#NOTES:
     dance-single:
     Basic:
     Easy:
     3:
     0.128940,0.193913,0.000000,0.056411,0.000000,112.000000,112.000000,0.000000,7.000000,0.000000,0.000000,0.128940,0.193913,0.000000,0.056411,0.000000,112.000000,112.000000,0.000000,7.000000,0.000000,0.000000:
// measure 0
0000
0000
0000
1000
,  // measure 1
1000
0000
0000
0000
,  // measure 2
0010
0010
0000
0100
,  // measure 3
0100
0000
0000
0001
,  // measure 4
0000
0000
0000
0010
,  // measure 5
0000
1000
0000
0000
,  // measure 6
1000
0000
0000
0001
,  // measure 7
0000
0010
0000
0000
,  // measure 8
1000
0000
0000
1000
,  // measure 9
0000
0000
0001
0000
,  // measure 10
0010
0000
0000
1000
,  // measure 11
0000
0000
0001
0000
,  // measure 12
0010
0000
0001
0000
,  // measure 13
0100
0000
0001
0000
,  // measure 14
0010
0000
0000
1000
,  // measure 15
0000
0010
0000
0001
,  // measure 16
0001
0000
0000
0010
,  // measure 17
0010
0000
0010
0000
,  // measure 18
1000
0000
0001
0001
,  // measure 19
0000
1000
0000
0010
,  // measure 20
0000
1000
0000
0000
,  // measure 21
1000
0000
0010
0000
,  // measure 22
0001
0000
0001
0000
,  // measure 23
0000
1000
0000
0001
,  // measure 24
0000
0010
0010
0000
,  // measure 25
0000
0000
0001
0000
,  // measure 26
0010
0000
1000
0000
,  // measure 27
1000
0000
0000
0001
,  // measure 28
0000
0010
0000
1000
,  // measure 29
0000
0000
0001
0000
,  // measure 30
0000
0010
0000
0001
,  // measure 31
0001
0000
0000
0002
,  // measure 32
0000
0000
0000
0003
,  // measure 33
0000
2000
0000
0000
,  // measure 34
0000
3000
0000
0002
,  // measure 35
0000
0000
0000
0000
,  // measure 36
0003
0000
2000
0000
,  // measure 37
0000
0000
3000
0000
,  // measure 38
1000
0000
0001
0001
,  // measure 39
0000
1000
0000
0001
,  // measure 40
0000
0010
0000
0000
,  // measure 41
1000
0000
0100
0000
,  // measure 42
1000
0000
0000
0001
,  // measure 43
0000
0010
0000
0010
,  // measure 44
0000
1000
0000
0001
,  // measure 45
1000
0000
0000
1000
,  // measure 46
0000
0000
0010
0000
,  // measure 47
0001
0000
0010
0000
,  // measure 48
1000
0000
1000
0000
,  // measure 49
1000
0000
0100
0000
,  // measure 50
0001
0000
0001
0000
,  // measure 51
0000
1000
0000
0001
,  // measure 52
0000
0000
0100
0000
,  // measure 53
0001
0000
0010
0000
,  // measure 54
0001
0000
0001
0000
,  // measure 55
0000
1000
0000
0001
,  // measure 56
0001
0000
0000
1000
,  // measure 57
1000
0000
0010
0010
,  // measure 58
0010
0000
0001
0001
,  // measure 59
0001
0001
0000
0000
,  // measure 60
1000
0000
0010
0000
,  // measure 61
0100
0000
0001
0000
,  // measure 62
0010
0000
1000
0000
,  // measure 63
0020
0000
0000
0000
,  // measure 64
0030
0000
2000
0000
,  // measure 65
0000
0000
3000
0000
,  // measure 66
0002
0000
0000
0000
,  // measure 67
0000
0000
0000
0000
,  // measure 68
0000
0000
0000
0003
;
