#VERSION:0.83;
#TITLE:neyo - miss independent (sped up);
#SUBTITLE:;
#ARTIST:Dancing Monkeys Project;
#TITLETRANSLIT:;
#SUBTITLETRANSLIT:;
#ARTISTTRANSLIT:;
#GENRE:;
#ORIGIN:;
#CREDIT:Gorilla v1.1.3 (Dancing Monkeys v1.06);
#BANNER:;
#BACKGROUND:93AA1393-F873-4747-9F65-7898EC757824-820x820.jpg;
#PREVIEWVID:;
#JACKET:NeYoRED.png;
#CDIMAGE:;
#DISCIMAGE:;
#LYRICSPATH:;
#CDTITLE:;
#MUSIC:neyo - miss independent (sped up).mp3;
#OFFSET:-0.431270;
#SAMPLESTART:31.876530;
#SAMPLELENGTH:12.000000;
#SELECTABLE:YES;
#BPMS:0.000=198.440;
#STOPS:643.000=1.209;
#DELAYS:;
#WARPS:;
#TIMESIGNATURES:0.000=4=4;
#TICKCOUNTS:0.000=4;
#COMBOS:0.000=1;
#SPEEDS:0.000=0.800=0.000=0;
#SCROLLS:0.000=1.000;
#FAKES:;
#LABELS:0.000=Song Start;
#BGCHANGES:;
#KEYSOUNDS:;
#ATTACKS:
;

//---------------dance-single - Basic----------------
#NOTEDATA:;
#CHARTNAME:Basic;
#STEPSTYPE:dance-single;
#DESCRIPTION:Basic;
#CHARTSTYLE:;
#DIFFICULTY:Easy;
#METER:4;
#RADARVALUES:0.269263,0.322684,0.010052,0.005026,0.000000,375.000000,373.000000,2.000000,1.000000,0.000000,0.000000,0.000000,0.000000,0.000000,0.269263,0.322684,0.010052,0.005026,0.000000,375.000000,373.000000,2.000000,1.000000,0.000000,0.000000,0.000000,0.000000,0.000000;
#CREDIT:Basic;
#NOTES:
// measure 0
1000
0000
0000
0010
,  // measure 1
1000
0000
0000
0001
,  // measure 2
1000
0000
0000
0010
,  // measure 3
1000
0000
0000
0010
,  // measure 4
1000
0000
0000
0010
,  // measure 5
1000
0000
0000
0010
,  // measure 6
0001
0000
0000
0010
,  // measure 7
0001
0000
0000
0100
,  // measure 8
0001
0000
0000
1000
,  // measure 9
1000
0000
0000
0010
,  // measure 10
0001
0000
0000
1000
,  // measure 11
1000
0000
0000
0010
,  // measure 12
0001
0000
0000
0010
,  // measure 13
1000
0000
0000
0010
,  // measure 14
1000
0000
0000
0100
,  // measure 15
0001
1000
0000
0000
,  // measure 16
1000
0000
0000
0100
,  // measure 17
1000
0001
0000
0000
,  // measure 18
1000
0000
0000
0010
,  // measure 19
0001
0000
0000
1000
,  // measure 20
1000
0000
0000
0100
,  // measure 21
1000
0010
0000
0000
,  // measure 22
1000
0000
0000
0010
,  // measure 23
0001
1000
0000
0000
,  // measure 24
0001
0000
0000
0010
,  // measure 25
0001
0000
0000
1000
,  // measure 26
1000
0000
0000
0010
,  // measure 27
0001
0000
0000
1000
,  // measure 28
1000
0000
0000
0001
,  // measure 29
1000
0010
0000
0000
,  // measure 30
1000
0000
0000
0001
,  // measure 31
0001
0000
0100
0010
,  // measure 32
0001
0000
0010
0100
,  // measure 33
1000
0001
0000
0000
,  // measure 34
0001
0000
0000
0010
,  // measure 35
1000
0000
0000
0010
,  // measure 36
1000
0001
0000
0000
,  // measure 37
1000
0000
0000
0010
,  // measure 38
1000
0000
0000
0010
,  // measure 39
0001
0000
0100
0010
,  // measure 40
1000
0000
0010
0100
,  // measure 41
0001
0000
0000
1000
,  // measure 42
0001
0000
0100
0010
,  // measure 43
0001
0000
0000
1000
,  // measure 44
1000
0001
0000
0000
,  // measure 45
1000
0000
0000
0010
,  // measure 46
0001
0000
0010
0001
,  // measure 47
1000
0001
0000
0000
,  // measure 48
0001
1000
0000
0001
,  // measure 49
1000
0000
0100
0010
,  // measure 50
0001
0000
0100
0010
,  // measure 51
1000
0001
0000
0000
,  // measure 52
1000
0001
0000
0000
,  // measure 53
1000
0000
0100
0010
,  // measure 54
0001
0000
0100
0010
,  // measure 55
1000
0001
0000
0000
,  // measure 56
0001
0000
0000
1000
,  // measure 57
0001
0000
0000
0010
,  // measure 58
0001
0000
0100
0010
,  // measure 59
0001
0000
0000
1000
,  // measure 60
1000
0010
0000
0000
,  // measure 61
1000
0000
0000
0100
,  // measure 62
1000
0000
0000
0010
,  // measure 63
1000
0001
0000
0000
,  // measure 64
0001
0000
0000
0010
,  // measure 65
0001
0000
0000
1000
,  // measure 66
1100
0000
0001
1000
,  // measure 67
0001
0000
0000
1000
,  // measure 68
1000
0001
0000
0000
,  // measure 69
1000
0000
0000
0010
,  // measure 70
0001
0000
0010
0100
,  // measure 71
1000
1000
0000
0001
,  // measure 72
0001
0000
0100
0010
,  // measure 73
1000
0010
0000
0000
,  // measure 74
0001
0000
0010
0100
,  // measure 75
1000
0000
0000
0010
,  // measure 76
0001
0000
0000
1000
,  // measure 77
1000
0010
0000
0000
,  // measure 78
0001
0000
0010
0100
,  // measure 79
0001
1000
0000
0000
,  // measure 80
1000
0000
0100
0010
,  // measure 81
1000
0000
0000
0100
,  // measure 82
1000
0000
0000
0001
,  // measure 83
1000
0000
0000
0100
,  // measure 84
0001
0000
0000
0010
,  // measure 85
1000
0001
0000
0000
,  // measure 86
1000
0000
0000
0010
,  // measure 87
0001
0000
0100
0010
,  // measure 88
0001
0000
0100
0010
,  // measure 89
1000
0010
0000
0000
,  // measure 90
0001
0000
0100
0010
,  // measure 91
1000
0000
0000
0010
,  // measure 92
1000
0001
0000
0000
,  // measure 93
1000
0001
0000
0000
,  // measure 94
0001
0000
0010
0100
,  // measure 95
0001
0000
0100
0010
,  // measure 96
1000
0000
0100
0010
,  // measure 97
1000
0010
0000
0000
,  // measure 98
0001
0000
0100
0010
,  // measure 99
0001
0000
1000
0000
,  // measure 100
1000
0001
0000
0000
,  // measure 101
1000
0010
0000
0000
,  // measure 102
1000
0000
0100
0010
,  // measure 103
1000
0001
0000
0000
,  // measure 104
0001
0000
0000
1000
,  // measure 105
1000
0000
0100
0010
,  // measure 106
0001
0000
0100
0010
,  // measure 107
1000
0001
0000
0000
,  // measure 108
1000
0001
0000
0000
,  // measure 109
1000
0000
0000
0001
,  // measure 110
1000
0000
0100
0010
,  // measure 111
1000
0001
0000
0000
,  // measure 112
1000
0000
0100
0010
,  // measure 113
0001
0000
0000
0010
,  // measure 114
1000
0000
0100
0010
,  // measure 115
1000
0001
0000
0000
,  // measure 116
1000
0010
0000
0000
,  // measure 117
1000
0000
0000
0100
,  // measure 118
1000
0000
0000
0010
,  // measure 119
1000
1000
0000
0001
,  // measure 120
1000
0000
0100
0010
,  // measure 121
1000
0000
0000
0010
,  // measure 122
0001
0000
0010
0001
,  // measure 123
1000
0001
0000
0000
,  // measure 124
0001
0000
0000
1000
,  // measure 125
1000
1000
0000
0001
,  // measure 126
0001
0000
0010
0001
,  // measure 127
0001
0000
0000
1000
,  // measure 128
0011
0000
1000
0100
,  // measure 129
1000
0000
0100
0010
,  // measure 130
1000
0100
1000
0000
,  // measure 131
1000
1000
0000
0001
,  // measure 132
0001
0000
0100
0010
,  // measure 133
1000
0000
0000
0010
,  // measure 134
1000
0000
0100
0010
,  // measure 135
0001
0000
0000
1000
,  // measure 136
1000
0000
0000
0010
,  // measure 137
0001
0000
0000
0100
,  // measure 138
0001
0000
0000
0100
,  // measure 139
1000
0000
0000
0010
,  // measure 140
0001
0000
0000
0010
,  // measure 141
1000
0000
0000
0010
,  // measure 142
1000
0000
0100
0010
,  // measure 143
1000
0001
0000
0000
,  // measure 144
1000
1000
0000
0001
,  // measure 145
1000
0000
0100
0010
,  // measure 146
0001
0000
0010
0100
,  // measure 147
1000
0000
0000
0100
,  // measure 148
1000
0001
0000
0000
,  // measure 149
1000
0000
0000
0100
,  // measure 150
0001
0000
0010
0001
,  // measure 151
1000
0001
0000
0000
,  // measure 152
1000
0000
0100
0010
,  // measure 153
0001
0000
0010
0100
,  // measure 154
0001
0000
0100
0010
,  // measure 155
1000
0000
0000
0100
,  // measure 156
1000
0010
0000
0000
,  // measure 157
1000
0000
0000
0010
,  // measure 158
1000
0000
0100
0010
,  // measure 159
1000
0020
0000
0000
,  // measure 160
0000
0030
0001
0000
;

//---------------dance-single - Standard----------------
#NOTEDATA:;
#CHARTNAME:Standard;
#STEPSTYPE:dance-single;
#DESCRIPTION:Standard;
#CHARTSTYLE:;
#DIFFICULTY:Medium;
#METER:6;
#RADARVALUES:0.358299,0.406497,0.055289,0.005026,0.000000,499.000000,488.000000,11.000000,1.000000,0.000000,0.000000,0.000000,0.000000,0.000000,0.358299,0.406497,0.055289,0.005026,0.000000,499.000000,488.000000,11.000000,1.000000,0.000000,0.000000,0.000000,0.000000,0.000000;
#CREDIT:Standard;
#NOTES:
1010
0000
0000
0000
0000
0000
0001
0000
,
0001
0000
0000
0000
0000
0000
0100
0000
,
0001
0000
0000
0000
0000
0000
0100
0000
,
0001
0000
0000
0000
0000
0000
0100
0000
,
0000
,
1010
0000
0000
0000
0000
0000
0001
0000
,
0001
0000
0000
0000
0000
0000
0100
0000
,
0001
0000
0000
0000
0000
0000
0100
0000
,
1000
0000
0000
0000
0000
0000
0100
0000
,
0001
0000
0010
0000
0000
0000
0001
0000
,
0001
0000
0000
0000
0000
0000
0100
0000
,
0001
0000
0010
0000
0000
0000
0001
0000
,
0001
0000
0000
0000
0000
0000
0100
0000
,
1000
0000
0000
0000
0010
0000
0100
0000
,
0001
0000
0000
0000
0000
0000
0100
0000
,
0001
0000
0000
0000
0000
0000
0010
0000
,
1100
0000
0100
0000
0000
0000
0000
0000
,
1000
0000
0001
0000
0000
0000
0010
0000
,
1000
0000
0010
0000
0000
0000
0100
0000
,
0001
0000
0000
0000
0000
0000
0100
0000
,
0001
0000
0010
0000
0000
0000
0001
0000
,
1000
0000
0001
0000
0000
0000
0010
0000
,
1000
0000
0010
0000
0000
0000
1000
0000
,
0001
0000
0000
0000
0000
0000
0100
0000
,
1100
0000
0100
0000
0000
0000
0000
0000
,
1000
0000
0000
0000
0010
0000
0100
0000
,
1000
0000
0000
0000
0000
0000
0100
0000
,
0001
0000
0000
0000
0000
0000
0100
0000
,
0001
0000
0010
0000
0000
0000
0001
0000
,
0001
0000
0000
0000
0000
0000
0100
0000
,
1000
0000
0010
0000
0000
0000
1000
0000
,
0001
0000
0000
0000
0000
0000
0100
0000
,
0001
0010
0000
0000
0100
0000
0000
0000
,
0001
0100
0000
0000
0010
0000
0000
0000
,
1000
0000
0010
0000
0000
0000
0100
0000
,
1000
0000
0000
0000
0010
0000
0100
0000
,
0001
0000
0000
0000
0000
0000
0100
0000
,
1000
0000
0010
0000
0000
0000
0100
0000
,
0001
0000
0000
0000
0000
0000
0100
0000
,
1000
0000
0000
0000
0000
0000
0001
1000
,
0001
0010
0000
0000
0100
0000
0000
0000
,
1000
0010
0000
0000
0100
0000
0000
0000
,
0001
0000
0010
0000
0000
0000
0001
0000
,
0001
0010
0000
0000
0100
0000
0000
0000
,
0001
0000
0010
0000
0000
0000
0001
0000
,
1000
0000
0010
0000
0000
0000
0100
0000
,
0001
0000
0000
0000
0000
0000
0100
0000
,
1000
0000
0100
0000
1000
0000
0010
0000
,
1000
0000
0010
0000
0000
0000
0100
0000
,
0001
0000
0100
0000
0001
0000
1000
0000
,
0001
0000
0100
0000
0010
0000
1000
0000
,
1000
0000
0100
0000
1000
0000
0010
0000
,
1000
0000
0010
0000
0000
0000
0100
0000
,
0001
0000
0010
0000
0000
0000
0100
0000
,
0001
0000
0100
0000
0010
0000
1000
0000
,
1000
0000
0100
0000
1000
0000
0010
0000
,
1000
0000
0010
0000
0000
0000
0100
0000
,
0001
0000
0010
0000
0000
0000
0001
0000
,
1000
0000
0000
0000
0100
0000
1000
0000
,
1000
0000
0100
0000
1000
0000
0010
0000
,
1000
0000
0000
0000
0000
0000
0100
0000
,
1000
0000
0010
0000
0000
0000
1000
0000
,
1000
0000
0001
0000
0000
0000
0010
0000
,
0001
0100
0000
0000
0000
0000
0010
0000
,
1000
0000
0010
0000
0000
0000
0100
0000
,
1000
0000
0000
0000
0010
0000
0100
0000
,
1000
0000
0000
0000
0000
0000
0100
0000
,
1100
0000
0000
0001
0001
0000
0100
0000
,
1000
0000
0000
0000
0000
0000
0100
0000
,
1000
0000
0010
0000
0000
0000
0100
0000
,
0001
0000
0000
0000
0000
0000
0010
0000
,
0110
0000
0000
0000
0001
0000
0100
0001
,
1000
0001
0001
0000
0000
0000
0100
0000
,
1000
0000
0100
0000
1000
0000
0010
0000
,
0001
0000
1000
0000
0000
0000
0100
0000
,
0110
0000
0000
0000
0001
0000
0100
0001
,
1000
0000
0000
0000
0000
0000
0001
1000
,
0001
0000
0010
0000
0000
0000
0001
0000
,
1000
0000
0010
0000
0000
0000
1000
0000
,
0110
0000
0000
0000
0001
0000
0100
0000
,
1100
0000
0100
0000
0000
0000
0000
0000
,
0001
0000
0100
0000
0010
0000
1000
0000
,
1000
0000
0001
0000
0000
0000
0010
0000
,
1000
1000
0000
0000
0000
0000
0010
0000
,
1000
0000
0001
0000
0000
0000
0010
0000
,
1000
0000
0001
0000
0000
0000
0100
0000
,
1000
0000
0010
0000
0000
0000
0100
0000
,
0001
0100
0000
0000
0000
0000
0010
0000
,
0001
0010
0000
0000
0100
0000
0000
0000
,
1000
0100
0000
0000
0010
0000
0000
0000
,
1000
0000
0010
0000
0000
0000
1000
0000
,
1000
0000
0100
0000
1000
0000
0010
0000
,
0001
0000
0000
0000
0000
0000
0100
0000
,
1000
0000
0010
0000
0000
0000
0100
0000
,
0001
0000
0010
0000
0000
0000
0100
0000
,
0110
0000
0000
0000
0001
0000
0100
0001
,
0001
0010
0000
0000
0100
0000
0000
0000
,
0001
0100
0000
0000
0010
0000
0000
0000
,
1000
0000
0010
0000
0000
0000
1000
0000
,
1000
0000
0100
0000
1000
0000
0010
0000
,
1000
0000
0000
0000
0010
0000
0100
0000
,
1000
0000
0010
0000
0000
0000
0100
0000
,
1000
0000
0010
0000
0000
0000
1000
0000
,
0001
0000
0100
0000
0010
0000
1000
0000
,
1000
0000
0010
0000
0000
0000
0100
0000
,
0001
0000
0010
0000
0000
0000
0001
0000
,
0001
0000
0100
0000
0010
0000
1000
0000
,
0001
0000
0100
0000
0010
0000
1000
0000
,
1000
0000
0010
0000
0000
0000
0100
0000
,
0001
0000
0010
0000
0000
0000
0100
0000
,
1000
1000
0000
0000
0000
0000
0010
0000
,
0001
0000
0100
0000
0010
0000
1000
0000
,
1000
0000
0010
0000
0000
0000
0100
0000
,
0001
0000
0100
0000
0010
0000
1000
0000
,
1000
0000
0000
0000
0100
0000
1000
0000
,
0001
0000
0100
0000
0010
0000
1000
0000
,
1000
0000
0010
0000
0000
0000
0100
0000
,
1000
0000
0010
0000
0000
0000
1000
0000
,
1000
0000
0001
0000
0000
0000
0010
0000
,
0001
0000
0000
0000
0010
0000
0100
0010
,
1000
0001
0001
0000
0000
0000
0100
0000
,
0001
0000
0100
0000
0010
0000
1000
0000
,
0001
0100
0000
0000
0000
0000
0010
0000
,
1000
0000
0100
0000
1000
0000
0010
0000
,
1000
0000
0010
0000
0000
0000
0100
0000
,
0001
0000
0010
0000
0000
0000
0001
0000
,
1000
0001
0001
0000
0000
0000
0100
0000
,
1000
0000
0100
0000
1000
0000
0010
0000
,
0001
0000
0010
0000
0000
0000
0001
0000
,
1100
0000
0000
0000
0001
0001
1000
0000
,
0001
0000
0100
0000
0010
0000
1000
0000
,
0001
0000
1000
0000
0001
0000
0100
0000
,
1000
0001
0001
0000
0000
0000
0100
0000
,
1000
0000
0100
0000
1000
0000
0010
0000
,
1000
0000
0000
0000
0000
0000
0001
1000
,
0001
0000
0100
0000
0010
0000
1000
0000
,
1000
0000
0000
0000
0000
0000
0100
0000
,
0001
0000
0000
0000
0000
0000
0100
0000
,
1000
0000
0000
0000
0000
0000
0010
0000
,
0001
0000
0000
0000
0000
0000
0010
0000
,
1000
0000
0000
0000
0000
0000
0100
0000
,
1000
0000
0000
0000
0010
0000
0100
0000
,
0001
0000
0000
0000
0000
0000
0100
0000
,
0001
0000
0100
0000
0010
0000
1000
0000
,
1000
0000
0010
0000
0000
0000
0100
0000
,
1000
0001
0001
0000
0000
0000
0100
0000
,
0001
0000
0100
0000
0010
0000
1000
0000
,
1000
0000
0010
0000
0100
0000
0001
0000
,
1000
0000
0001
0000
0000
0000
0010
0000
,
1000
0000
0010
0000
0000
0000
0100
0000
,
1000
0000
0001
0000
0000
0000
0010
0000
,
1000
0000
0001
0000
1000
0000
0001
0000
,
1000
0000
0010
0000
0000
0000
0100
0000
,
0001
0000
0100
0000
0010
0000
1000
0000
,
0001
0000
0100
0000
0010
0000
1000
0000
,
1000
0000
0100
0000
1000
0000
0010
0000
,
0001
0000
0000
0000
0000
0010
0100
0000
,
0001
0000
1000
0000
0000
0000
0100
0000
,
0001
0000
0000
0000
0000
0000
0010
0000
,
0001
0000
0100
0000
0010
0000
1000
0000
,
0001
0000
0200
0000
0000
0000
0000
0000
,
0000
0000
0300
0000
0001
0000
0010
0000
,
;

//---------------dance-single - Heavy----------------
#NOTEDATA:;
#CHARTNAME:Heavy;
#STEPSTYPE:dance-single;
#DESCRIPTION:Heavy;
#CHARTSTYLE:;
#DIFFICULTY:Hard;
#METER:8;
#RADARVALUES:0.481801,0.569535,0.185971,0.005026,0.000000,671.000000,634.000000,37.000000,1.000000,0.000000,0.000000,0.000000,0.000000,0.000000,0.481801,0.569535,0.185971,0.005026,0.000000,671.000000,634.000000,37.000000,1.000000,0.000000,0.000000,0.000000,0.000000,0.000000;
#CREDIT:Heavy;
#NOTES:
0101
0000
0000
0000
0000
0000
1000
0000
,
1001
0000
0000
0000
0000
0000
1000
1000
,
0001
0100
0000
0000
0000
0000
0001
0000
,
0001
0100
0000
0000
0000
0000
0001
0000
,
0000
,
0101
0000
0000
0000
0000
0000
1000
0000
,
0001
0100
0000
0000
0000
0000
0001
0000
,
1000
0100
0000
0000
0000
0000
1000
0000
,
0001
0100
0000
0000
0000
0000
0001
0000
,
1000
0000
0100
0000
0000
0000
1000
0010
,
0001
0100
0000
0000
0000
0000
0001
0000
,
1000
0000
0100
0000
0000
0000
1000
0010
,
0001
0100
0000
0000
0000
0000
0001
0000
,
1010
0000
0000
0001
0100
0000
0001
0000
,
0001
0100
0000
0000
0000
0000
0001
0000
,
1000
0100
0000
0000
0000
0000
1000
0000
,
0110
0000
1000
0000
0000
0000
0000
0100
,
1000
0000
0000
0000
0000
0001
0010
0100
,
0001
1000
0001
0000
0000
0000
0010
0000
,
0001
0100
0000
0000
0000
0000
0001
0000
,
1000
0000
0100
0000
0000
0000
1000
0010
,
1000
0000
0000
0000
0000
0001
0010
0000
,
1001
0000
0001
0000
0000
0000
0010
0000
,
0001
0100
0000
0000
0000
0000
0001
0000
,
0110
0000
1000
0000
0000
0000
0000
0000
,
1010
0000
0000
0001
0100
0000
0001
0000
,
0001
0010
0000
0001
0000
0000
0000
0000
,
0001
0100
0000
0000
0000
0000
0001
0000
,
1000
0000
0100
0000
0000
0000
1000
0000
,
1001
0000
0000
0000
0000
0000
1000
0000
,
1001
0000
0001
0000
0000
0000
0010
0000
,
1001
0000
0000
0000
0000
0000
1000
0000
,
1001
0000
0100
0000
0010
0000
1000
0000
,
1001
0000
0010
0000
0100
0000
0001
0000
,
0001
1000
0001
0000
0000
0000
0010
0000
,
1010
0000
0000
0001
0100
0000
0001
0000
,
0001
0100
0000
0000
0000
0000
0001
0000
,
0001
1000
0001
0000
0000
0000
0010
0000
,
0001
0100
0000
0000
0000
0000
0001
0000
,
0001
1000
0000
0000
0000
0000
0010
0000
,
1001
0000
0100
0000
0010
0000
1000
0000
,
1001
0000
0010
0000
0100
0000
1000
0000
,
1000
0000
0100
0000
0000
0000
1000
0000
,
1001
0000
0100
0000
0010
0000
1000
0000
,
1000
0000
0100
0000
0000
0000
1000
0010
,
0001
1000
0001
0000
0000
0000
0010
0000
,
0001
0100
0000
0000
0000
0000
0001
0000
,
1000
0000
0100
0000
1000
1000
0100
0000
,
0001
1000
0001
0000
0000
0000
0010
0000
,
0110
0000
0100
0000
0000
0000
0010
0100
,
1000
0000
0100
0010
0001
0000
0010
0000
,
0001
0000
0010
0001
0100
0000
0001
0000
,
0001
1000
0001
0000
0000
0000
0010
0000
,
0001
1000
0001
0000
0000
0000
0100
0000
,
1000
0000
0100
0010
0001
0000
0010
0000
,
0001
0000
0010
0001
0100
0000
0001
0000
,
0001
1000
0001
0000
0000
0000
0010
0000
,
1000
0000
0100
0000
0000
0000
1000
0010
,
0001
0000
0000
0010
0001
0010
0001
0000
,
0001
0000
0010
0001
0100
0000
0001
0000
,
0001
0010
0000
0001
0000
0000
0000
0000
,
1001
0000
0001
0000
0000
0000
0010
0000
,
1000
0000
0000
0000
0000
0001
0010
0100
,
1000
0010
0000
1000
0000
0000
0001
1000
,
0001
1000
0001
0000
0000
0000
0010
0000
,
1010
0000
0000
0001
0100
0000
0001
0000
,
0001
0010
0000
0001
0000
0000
0000
0000
,
0110
0000
0000
0001
0001
0000
0010
0001
,
0001
0010
0000
0001
0000
0000
0000
0000
,
0001
1000
0001
0000
0000
0000
0010
0000
,
0001
1000
0000
0000
0000
0000
0010
0000
,
1001
0000
0000
1000
0010
0000
1000
0001
,
1000
0100
0100
0000
0000
0000
0010
0010
,
0001
0000
0010
0001
0100
0000
0001
0000
,
0001
0010
0001
0000
0000
0000
1000
0000
,
1001
0000
0000
1000
0010
0000
1000
0001
,
0001
1000
0000
0000
0000
0000
0010
0100
,
1000
0000
0100
0000
0000
0000
1000
0000
,
1001
0000
0001
0000
0000
0000
0010
0000
,
1001
0000
0000
1000
0010
0000
1000
0000
,
0110
0000
1000
0000
0000
0000
0000
0100
,
1000
0000
0100
0010
0001
0000
0010
0000
,
1000
0000
0000
0000
0000
0001
0010
0100
,
0001
0001
0100
0000
0001
0000
0010
0000
,
1000
0000
0000
0000
0000
0001
0010
0100
,
1000
0000
0000
0000
0000
0001
0010
0100
,
0001
1000
0001
0000
0000
0000
0010
0000
,
1000
0010
0000
1000
0000
0000
0001
0000
,
1001
0000
0100
0000
0010
0000
1000
0000
,
1001
0000
0010
0000
0100
0000
0001
0000
,
1001
0000
0001
0000
0000
0000
0010
0000
,
0001
0000
0010
0001
0100
0000
0001
0000
,
0001
0100
0000
0000
0000
0000
0001
0000
,
0001
1000
0001
0000
0000
0000
0010
0000
,
0001
1000
0001
0000
0000
0000
0100
0000
,
1001
0000
0000
1000
0010
0000
1000
0000
,
1001
0000
0100
0000
0010
0000
1000
0000
,
1001
0000
0100
0000
0010
0000
0001
0000
,
1001
0000
0001
0000
0000
0000
0010
0000
,
0001
0000
0010
0001
0100
0000
0001
0000
,
0001
0010
0000
0000
0001
0000
1000
0000
,
0001
1000
0001
0000
0000
0000
0010
0000
,
1001
0000
0001
0000
0000
0000
0010
0000
,
1000
0000
0100
0010
0001
0000
0010
0000
,
0001
1000
0001
0000
0000
0000
0010
0000
,
1000
0000
0100
0000
0000
0000
1000
0010
,
1000
0000
0100
0010
0001
0000
0010
0000
,
0001
0000
0100
0010
1000
0000
0010
0000
,
0001
1000
0001
0000
0000
0000
0010
0000
,
0001
1000
0001
0000
0000
0000
0010
0000
,
0001
0001
0100
0000
0001
0000
0010
0000
,
1000
0000
0100
0010
0001
0000
0010
0000
,
0001
1000
0001
0000
0000
0000
0010
0000
,
1000
0000
0100
0010
0001
0000
0010
0000
,
0001
0000
0000
0010
0001
0010
0001
0000
,
1000
0000
0100
0010
0001
0000
0010
0000
,
0001
1000
0001
0000
0000
0000
0010
0000
,
1001
0000
0001
0000
0000
0000
0010
0000
,
1000
0000
0000
0000
0000
0001
0010
0100
,
0001
0000
0000
0100
0001
0000
0010
0001
,
1000
0100
0100
0000
0000
0000
0010
0010
,
1000
0000
0100
0010
0001
0000
0010
0000
,
1000
0010
0000
1000
0000
0000
0001
1000
,
1000
0000
0100
0000
1000
1000
0100
0000
,
0001
1000
0001
0000
0000
0000
0010
0000
,
1000
0000
0100
0000
0000
0000
1000
0010
,
1000
0100
0100
0000
0000
0000
0010
0010
,
1000
0000
0100
0000
1000
1000
0100
0000
,
1000
0000
0100
0000
0000
0000
1000
0000
,
1010
0000
0000
0000
1000
1000
0001
1000
,
1000
0000
0100
0010
0001
0000
0010
0000
,
1000
0100
0010
0100
0010
0000
0001
0000
,
1000
0100
0100
0000
0000
0000
0010
0010
,
0001
0000
0010
0001
0100
0000
0001
0000
,
0001
1000
0000
0000
0000
0000
0010
0100
,
1000
0000
0100
0010
0001
0000
0010
0000
,
0001
0010
0000
0001
0000
0000
0000
0000
,
0001
0100
0000
0000
0000
0000
0001
0000
,
0001
0100
0000
0000
0000
0000
0001
0000
,
1000
0100
0000
0000
0000
0000
1000
0000
,
0001
0100
0000
0000
0000
0000
0001
0000
,
1010
0000
0000
0001
0100
0000
0001
0000
,
0001
0100
0000
0000
0000
0000
0001
0000
,
1000
0000
0100
0010
0001
0000
0010
0000
,
0001
1000
0001
0000
0000
0000
0010
0000
,
1000
0100
0100
0000
0000
0000
0010
0010
,
1000
0000
0100
0010
0001
0000
0010
0000
,
0001
0000
0100
0010
1000
0000
0010
0000
,
1000
0000
0000
0000
0000
0001
0010
0100
,
0001
1000
0001
0000
0000
0000
0010
0000
,
1000
0000
0000
0000
0000
0001
0010
0100
,
0001
0010
0000
0100
0010
0000
0001
0000
,
0001
1000
0001
0000
0000
0000
0010
0000
,
1000
0000
0100
0010
0001
0000
0010
0000
,
1000
0000
0010
0100
0001
0000
0100
0000
,
0001
0000
0010
0001
0100
0000
0001
0000
,
0001
0000
0000
0000
0000
1000
0100
0100
,
0001
0010
0001
0000
0000
0000
1000
0000
,
0001
1000
0000
0000
0000
0000
0010
0000
,
1000
0000
0100
0010
0001
0000
0010
0000
,
1000
0000
0020
0000
0000
0000
0000
0000
,
0000
0000
0030
0000
1000
1000
0000
0001
,
;
