#TITLE:Mirrors Radio;
#SUBTITLE:;
#ARTIST:Dancing Monkeys Project;
#TITLETRANSLIT:;
#SUBTITLETRANSLIT:;
#ARTISTTRANSLIT:;
#GENRE:;
#CREDIT:Gorilla v1.1.3 (Dancing Monkeys v1.06);
#BANNER:desktop-wallpaper-anime-techno-techno-girl.png;
#BACKGROUND:desktop-anime-techno-techno-girl.png;
#LYRICSPATH:;
#CDTITLE:;
#MUSIC:Mirrors Radio.mp3;
#OFFSET:-1.697583;
#SAMPLESTART:43.953835;
#SAMPLELENGTH:12.000000;
#SELECTABLE:YES;
#BPMS:0.000000=141.990997
;
#STOPS:
;
#BGCHANGES:;
#KEYSOUNDS:;
#ATTACKS:;

//---------------dance-single - Basic----------------
#NOTES:
     dance-single:
     Basic:
     Easy:
     4:
     0.320987,0.286033,0.013785,0.013785,0.000000,326.000000,324.000000,2.000000,2.000000,0.000000,0.000000,0.320987,0.286033,0.013785,0.013785,0.000000,326.000000,324.000000,2.000000,2.000000,0.000000,0.000000:
0001
1000
0001
1000
,
0001
1000
0001
1000
,
0001
1000
0001
1000
,
0001
1000
0001
1000
,
0010
0100
0010
0100
,
1000
0001
1000
0001
,
1000
0100
0010
0100
,
0010
0100
0001
1000
,
0001
1000
0001
1000
,
0010
0100
0010
0100
,
1000
0001
1000
0001
,
1000
0001
0100
0010
,
0100
0010
0001
0100
,
0010
0010
1000
0100
,
0100
0001
0001
0010
,
0010
0100
1000
0010
,
1000
0100
0001
0100
,
0010
0100
0001
0010
,
1000
0001
0010
0100
,
1000
0001
0100
0010
,
1000
0001
0100
0010
,
1000
0001
0010
0100
,
1000
0001
0010
0100
,
0001
1000
0100
0010
,
1000
0001
0010
0100
,
0001
0010
0001
0100
,
1000
0010
0100
0010
,
1000
0001
0100
0010
,
0001
1000
0010
0100
,
1000
0001
0100
0010
,
0001
1000
0100
0010
,
0001
1000
0010
0100
,
0001
1000
0100
0010
,
1000
0100
0010
0010
,
1000
0010
0100
0001
,
1000
0100
0010
0020
,
0000
0000
0000
0000
,
0030
0010
0100
0001
,
1000
0010
0100
0010
,
0001
1000
0100
0001
,
1000
0010
0001
0010
,
1000
0100
0001
0010
,
1000
0100
0010
1000
,
0001
0100
0001
0100
,
0001
1000
0100
0001
,
1000
0100
0010
0100
,
0010
1000
0001
1000
,
0001
1000
0001
1000
,
0001
1000
0001
1000
,
0001
1000
0001
0010
,
0100
0010
0100
0010
,
0100
0010
1000
0020
,
0000
0000
0000
0030
,
1001
0100
1000
0100
,
1000
0010
0001
0010
,
1000
0010
0001
0010
,
1000
0100
0001
0100
,
1000
0010
0001
0010
,
0101
0100
1000
0100
,
1000
0001
0001
0100
,
1000
0010
0001
0010
,
0001
0100
1000
0100
,
0001
0100
1000
0100
,
0001
0010
1000
0010
,
1000
0010
0001
0010
,
1000
0010
0001
0010
,
0001
0100
1000
0100
,
1000
0001
0001
0100
,
0010
1000
0001
0010
,
1000
0001
0100
0010
,
1000
0001
0010
0100
,
0001
1000
0100
0010
,
0001
1000
0100
0010
,
1000
0001
0010
0100
,
0001
1000
0010
0100
,
0001
1000
0010
0010
,
0001
0010
0100
0001
,
1000
0001
0100
0010
,
1000
0001
0010
0100
,
0001
1000
0010
0100
,
0001
1000
0010
0100
,
1000
0010
0100
0010
,
1000
0010
0001
0100
,
0001
0000
0000
0000
;

//---------------dance-single - Basic----------------
#NOTES:
     dance-single:
     :
     Beginner:
     4:
     0.157540,0.141724,0.000000,0.013785,0.000000,160.000000,160.000000,0.000000,2.000000,0.000000,0.000000,0.157540,0.141724,0.000000,0.013785,0.000000,160.000000,160.000000,0.000000,2.000000,0.000000,0.000000:
// measure 0
0100
0000
0001
0000
,  // measure 1
0100
0000
0001
0000
,  // measure 2
0010
0000
0100
0000
,  // measure 3
0010
0000
0100
0000
,  // measure 4
0010
0000
0010
0000
,  // measure 5
1000
0000
0010
0000
,  // measure 6
1000
0000
0001
0000
,  // measure 7
0010
0000
0100
0000
,  // measure 8
0010
0000
0001
0000
,  // measure 9
0100
0000
0010
0000
,  // measure 10
0100
0000
1000
0000
,  // measure 11
0010
0000
1000
0000
,  // measure 12
0100
0000
0001
0000
,  // measure 13
0010
0000
1000
0000
,  // measure 14
0100
0000
0001
0000
,  // measure 15
0010
0000
1000
0000
,  // measure 16
1000
0000
0001
0000
,  // measure 17
0010
0000
0001
0000
,  // measure 18
1000
0000
0010
0000
,  // measure 19
1000
0000
0100
0000
,  // measure 20
1000
0000
0100
0000
,  // measure 21
1000
0000
0010
0000
,  // measure 22
1000
0000
0010
0000
,  // measure 23
0001
0000
0100
0000
,  // measure 24
1000
0000
0010
0000
,  // measure 25
0001
0000
0001
0000
,  // measure 26
1000
0000
0100
0000
,  // measure 27
1000
0000
0100
0000
,  // measure 28
0001
0000
0010
0000
,  // measure 29
1000
0000
0100
0000
,  // measure 30
0001
1000
0000
0010
,  // measure 31
0000
1000
0000
0100
,  // measure 32
0000
1000
0000
0010
,  // measure 33
0000
0100
0000
0010
,  // measure 34
0000
0010
0000
0001
,  // measure 35
0000
0100
0000
0020
,  // measure 36
0000
0000
0000
0000
,  // measure 37
0030
0000
0100
0000
,  // measure 38
1000
0000
0100
0000
,  // measure 39
0001
0000
0100
0000
,  // measure 40
1000
0000
0001
0000
,  // measure 41
1000
0000
0001
0000
,  // measure 42
1000
0000
0010
0000
,  // measure 43
0001
0000
0001
0000
,  // measure 44
0001
0000
0100
0000
,  // measure 45
1000
0000
0010
0000
,  // measure 46
0010
0000
0001
0000
,  // measure 47
0010
0000
0100
0000
,  // measure 48
1000
0000
0100
0000
,  // measure 49
0010
0000
0001
0000
,  // measure 50
0010
0000
1000
0000
,  // measure 51
0100
0000
0020
0000
,  // measure 52
0030
0000
0000
0000
,  // measure 53
0000
0001
0000
0100
,  // measure 54
0000
0010
0000
0100
,  // measure 55
0000
0010
0000
0010
,  // measure 56
0000
0100
0000
0100
,  // measure 57
0000
0100
0000
0010
,  // measure 58
0000
0100
0000
0100
,  // measure 59
0000
0001
0000
0100
,  // measure 60
0000
0000
0001
0000
,  // measure 61
0001
0000
1000
0000
,  // measure 62
0001
0000
0100
0000
,  // measure 63
0001
0000
0100
0000
,  // measure 64
1000
0000
0001
0000
,  // measure 65
1000
0000
0010
0000
,  // measure 66
0001
0000
0100
0000
,  // measure 67
1000
0000
0001
0000
,  // measure 68
0010
0000
0001
0000
,  // measure 69
1000
0000
0000
0010
,  // measure 70
0000
0001
0000
0100
,  // measure 71
0000
1000
0000
0010
,  // measure 72
0000
1000
0000
0010
,  // measure 73
0000
0001
0000
0100
,  // measure 74
0000
1000
0000
0100
,  // measure 75
0000
1000
0000
0010
,  // measure 76
0000
0010
0000
0001
,  // measure 77
0000
0001
0000
0010
,  // measure 78
0000
0001
0000
0100
,  // measure 79
0000
1000
0000
0100
,  // measure 80
0000
1000
0000
0100
,  // measure 81
0000
0010
0000
0100
,  // measure 82
0000
0010
0000
0000
;
