#TITLE:Me And You Against The World;
#SUBTITLE:;
#ARTIST:Dancing Monkeys Project;
#TITLETRANSLIT:;
#SUBTITLETRANSLIT:;
#ARTISTTRANSLIT:;
#GENRE:;
#CREDIT:Gorilla v1.1.3 (Dancing Monkeys v1.06);
#BANNER:;
#BACKGROUND:;
#LYRICSPATH:;
#CDTITLE:;
#MUSIC:Me And You Against The World.mp3;
#OFFSET:-0.475624;
#SAMPLESTART:43.557255;
#SAMPLELENGTH:12.000000;
#SELECTABLE:YES;
#BPMS:0.000000=139.270004
;
#STOPS:
;
#BGCHANGES:;
#KEYSOUNDS:;
#ATTACKS:;

//---------------dance-single - Basic----------------
#NOTES:
     dance-single:
     Basic:
     Easy:
     1:
     0.120933,0.156035,0.000000,0.114784,0.000000,177.000000,177.000000,0.000000,24.000000,0.000000,0.000000,0.120933,0.156035,0.000000,0.114784,0.000000,177.000000,177.000000,0.000000,24.000000,0.000000,0.000000:
// measure 0
2000
0000
3000
0200
,  // measure 1
0000
0300
0020
0000
,  // measure 2
0030
2000
0000
3000
,  // measure 3
0000
0020
0000
0030
,  // measure 4
0200
0000
0300
2000
,  // measure 5
0000
0000
3000
0002
,  // measure 6
0000
0003
1000
1000
,  // measure 7
1000
1000
0010
0010
,  // measure 8
0010
0020
0000
0030
,  // measure 9
2000
0000
3000
0010
,  // measure 10
0010
0010
0010
1000
,  // measure 11
1000
1000
1000
0000
,  // measure 12
0010
0010
0010
0010
,  // measure 13
2000
0000
0000
3000
,  // measure 14
0020
0000
0030
2000
,  // measure 15
0000
3000
0002
0000
,  // measure 16
0000
0003
0200
0000
,  // measure 17
0300
0002
0000
0003
,  // measure 18
2000
0000
0000
0000
,  // measure 19
0000
0000
3000
0010
,  // measure 20
0000
0100
0000
0010
,  // measure 21
0000
1000
0000
0010
,  // measure 22
0000
0001
0000
1000
,  // measure 23
0000
0010
0000
0100
,  // measure 24
0000
0001
0000
1000
,  // measure 25
0000
0010
0000
1000
,  // measure 26
0000
0010
0100
0100
,  // measure 27
0001
0001
0100
0100
,  // measure 28
0010
0010
1000
1000
,  // measure 29
0010
0010
0001
0001
,  // measure 30
0100
0100
0010
0010
,  // measure 31
1000
1000
0010
0010
,  // measure 32
0100
0100
0001
0001
,  // measure 33
2000
0000
0000
3000
,  // measure 34
0002
0000
0003
2000
,  // measure 35
0000
3000
0020
0000
,  // measure 36
0030
0200
0000
0000
,  // measure 37
0300
2000
0000
3000
,  // measure 38
0020
0000
0000
0000
,  // measure 39
0000
0030
0100
0100
,  // measure 40
0100
0100
0001
0001
,  // measure 41
0001
0001
1000
1000
,  // measure 42
1000
1000
0010
0010
,  // measure 43
0010
0010
1000
1000
,  // measure 44
1000
1000
0001
0001
,  // measure 45
0001
0001
0100
0100
,  // measure 46
0100
0100
0000
0001
,  // measure 47
0000
0001
0000
0100
,  // measure 48
0000
0100
0000
0001
,  // measure 49
0000
0010
0000
1000
,  // measure 50
0000
0010
0000
0100
,  // measure 51
0000
0001
0000
0010
,  // measure 52
0000
0100
0000
0001
,  // measure 53
0100
0100
0100
0100
,  // measure 54
0001
0001
0001
0001
,  // measure 55
1000
1000
1000
1000
,  // measure 56
0010
0010
0010
0010
,  // measure 57
1000
1000
1000
1000
,  // measure 58
0010
0010
0010
0010
,  // measure 59
0100
0100
0100
0000
,  // measure 60
0010
0000
0100
0000
,  // measure 61
0001
0000
0010
0000
,  // measure 62
1000
0000
0010
0000
,  // measure 63
0100
0000
0001
0000
,  // measure 64
0010
0000
1000
0000
,  // measure 65
0010
0000
0100
0000
,  // measure 66
0001
0000
0010
0000
,  // measure 67
0100
0000
0001
0000
,  // measure 68
0010
0000
1000
0000
,  // measure 69
0010
0000
0100
0000
,  // measure 70
0001
0000
0010
0000
,  // measure 71
1000
0000
0010
0000
,  // measure 72
1000
0000
0010
0000
;

//---------------dance-single - Standard----------------
#NOTES:
     dance-single:
     Standard:
     Medium:
     1:
     0.002050,0.000090,0.004783,0.000000,0.000000,3.000000,2.000000,1.000000,0.000000,0.000000,0.000000,0.002050,0.000090,0.004783,0.000000,0.000000,3.000000,2.000000,1.000000,0.000000,0.000000,0.000000:
1010
1000
0000
0000
0000
0000
0000
0000
,
0000
0000
0000
0000
0000
0000
0000
0000
,
0000
0000
0000
0000
0000
0000
0000
0000
,
0000
0000
0000
0000
0000
0000
0000
0000
,
0000
0000
0000
0000
0000
0000
0000
0000
,
0000
0000
0000
0000
0000
0000
0000
0000
,
0000
0000
0000
0000
0000
0000
0000
0000
,
0000
0000
0000
0000
0000
0000
0000
0000
,
0000
0000
0000
0000
0000
0000
0000
0000
,
0000
0000
0000
0000
0000
0000
0000
0000
,
0000
0000
0000
0000
0000
0000
0000
0000
,
0000
0000
0000
0000
0000
0000
0000
0000
,
0000
0000
0000
0000
0000
0000
0000
0000
,
0000
0000
0000
0000
0000
0000
0000
0000
,
0000
0000
0000
0000
0000
0000
0000
0000
,
0000
0000
0000
0000
0000
0000
0000
0000
,
0000
0000
0000
0000
0000
0000
0000
0000
,
0000
0000
0000
0000
0000
0000
0000
0000
,
0000
0000
0000
0000
0000
0000
0000
0000
,
0000
0000
0000
0000
0000
0000
0000
0000
,
0000
0000
0000
0000
0000
0000
0000
0000
,
0000
0000
0000
0000
0000
0000
0000
0000
,
0000
0000
0000
0000
0000
0000
0000
0000
,
0000
0000
0000
0000
0000
0000
0000
0000
,
0000
0000
0000
0000
0000
0000
0000
0000
,
0000
0000
0000
0000
0000
0000
0000
0000
,
0000
0000
0000
0000
0000
0000
0000
0000
,
0000
0000
0000
0000
0000
0000
0000
0000
,
0000
0000
0000
0000
0000
0000
0000
0000
,
0000
0000
0000
0000
0000
0000
0000
0000
,
0000
0000
0000
0000
0000
0000
0000
0000
,
0000
0000
0000
0000
0000
0000
0000
0000
,
0000
0000
0000
0000
0000
0000
0000
0000
,
0000
0000
0000
0000
0000
0000
0000
0000
,
0000
0000
0000
0000
0000
0000
0000
0000
,
0000
0000
0000
0000
0000
0000
0000
0000
,
0000
0000
0000
0000
0000
0000
0000
0000
,
0000
0000
0000
0000
0000
0000
0000
0000
,
0000
0000
0000
0000
0000
0000
0000
0000
,
0000
0000
0000
0000
0000
0000
0000
0000
,
0000
0000
0000
0000
0000
0000
0000
0000
,
0000
0000
0000
0000
0000
0000
0000
0000
,
0000
0000
0000
0000
0000
0000
0000
0000
,
0000
0000
0000
0000
0000
0000
0000
0000
,
0000
0000
0000
0000
0000
0000
0000
0000
,
0000
0000
0000
0000
0000
0000
0000
0000
,
0000
0000
0000
0000
0000
0000
0000
0000
,
0000
0000
0000
0000
0000
0000
0000
0000
,
0000
0000
0000
0000
0000
0000
0000
0000
,
0000
0000
0000
0000
0000
0000
0000
0000
,
0000
0000
0000
0000
0000
0000
0000
0000
,
0000
0000
0000
0000
0000
0000
0000
0000
,
0000
0000
0000
0000
0000
0000
0000
0000
,
0000
0000
0000
0000
0000
0000
0000
0000
,
0000
0000
0000
0000
0000
0000
0000
0000
,
0000
0000
0000
0000
0000
0000
0000
0000
,
0000
0000
0000
0000
0000
0000
0000
0000
,
0000
0000
0000
0000
0000
0000
0000
0000
,
0000
0000
0000
0000
0000
0000
0000
0000
,
0000
0000
0000
0000
0000
0000
0000
0000
,
0000
0000
0000
0000
0000
0000
0000
0000
,
0000
0000
0000
0000
0000
0000
0000
0000
,
0000
0000
0000
0000
0000
0000
0000
0000
,
0000
0000
0000
0000
0000
0000
0000
0000
,
0000
0000
0000
0000
0000
0000
0000
0000
,
0000
0000
0000
0000
0000
0000
0000
0000
,
;

//---------------dance-single - Heavy----------------
#NOTES:
     dance-single:
     Heavy:
     Hard:
     1:
     0.002050,0.000090,0.004783,0.000000,0.000000,3.000000,2.000000,1.000000,0.000000,0.000000,0.000000,0.002050,0.000090,0.004783,0.000000,0.000000,3.000000,2.000000,1.000000,0.000000,0.000000,0.000000:
0011
1000
0000
0000
0000
0000
0000
0000
,
0000
0000
0000
0000
0000
0000
0000
0000
,
0000
0000
0000
0000
0000
0000
0000
0000
,
0000
0000
0000
0000
0000
0000
0000
0000
,
0000
0000
0000
0000
0000
0000
0000
0000
,
0000
0000
0000
0000
0000
0000
0000
0000
,
0000
0000
0000
0000
0000
0000
0000
0000
,
0000
0000
0000
0000
0000
0000
0000
0000
,
0000
0000
0000
0000
0000
0000
0000
0000
,
0000
0000
0000
0000
0000
0000
0000
0000
,
0000
0000
0000
0000
0000
0000
0000
0000
,
0000
0000
0000
0000
0000
0000
0000
0000
,
0000
0000
0000
0000
0000
0000
0000
0000
,
0000
0000
0000
0000
0000
0000
0000
0000
,
0000
0000
0000
0000
0000
0000
0000
0000
,
0000
0000
0000
0000
0000
0000
0000
0000
,
0000
0000
0000
0000
0000
0000
0000
0000
,
0000
0000
0000
0000
0000
0000
0000
0000
,
0000
0000
0000
0000
0000
0000
0000
0000
,
0000
0000
0000
0000
0000
0000
0000
0000
,
0000
0000
0000
0000
0000
0000
0000
0000
,
0000
0000
0000
0000
0000
0000
0000
0000
,
0000
0000
0000
0000
0000
0000
0000
0000
,
0000
0000
0000
0000
0000
0000
0000
0000
,
0000
0000
0000
0000
0000
0000
0000
0000
,
0000
0000
0000
0000
0000
0000
0000
0000
,
0000
0000
0000
0000
0000
0000
0000
0000
,
0000
0000
0000
0000
0000
0000
0000
0000
,
0000
0000
0000
0000
0000
0000
0000
0000
,
0000
0000
0000
0000
0000
0000
0000
0000
,
0000
0000
0000
0000
0000
0000
0000
0000
,
0000
0000
0000
0000
0000
0000
0000
0000
,
0000
0000
0000
0000
0000
0000
0000
0000
,
0000
0000
0000
0000
0000
0000
0000
0000
,
0000
0000
0000
0000
0000
0000
0000
0000
,
0000
0000
0000
0000
0000
0000
0000
0000
,
0000
0000
0000
0000
0000
0000
0000
0000
,
0000
0000
0000
0000
0000
0000
0000
0000
,
0000
0000
0000
0000
0000
0000
0000
0000
,
0000
0000
0000
0000
0000
0000
0000
0000
,
0000
0000
0000
0000
0000
0000
0000
0000
,
0000
0000
0000
0000
0000
0000
0000
0000
,
0000
0000
0000
0000
0000
0000
0000
0000
,
0000
0000
0000
0000
0000
0000
0000
0000
,
0000
0000
0000
0000
0000
0000
0000
0000
,
0000
0000
0000
0000
0000
0000
0000
0000
,
0000
0000
0000
0000
0000
0000
0000
0000
,
0000
0000
0000
0000
0000
0000
0000
0000
,
0000
0000
0000
0000
0000
0000
0000
0000
,
0000
0000
0000
0000
0000
0000
0000
0000
,
0000
0000
0000
0000
0000
0000
0000
0000
,
0000
0000
0000
0000
0000
0000
0000
0000
,
0000
0000
0000
0000
0000
0000
0000
0000
,
0000
0000
0000
0000
0000
0000
0000
0000
,
0000
0000
0000
0000
0000
0000
0000
0000
,
0000
0000
0000
0000
0000
0000
0000
0000
,
0000
0000
0000
0000
0000
0000
0000
0000
,
0000
0000
0000
0000
0000
0000
0000
0000
,
0000
0000
0000
0000
0000
0000
0000
0000
,
0000
0000
0000
0000
0000
0000
0000
0000
,
0000
0000
0000
0000
0000
0000
0000
0000
,
0000
0000
0000
0000
0000
0000
0000
0000
,
0000
0000
0000
0000
0000
0000
0000
0000
,
0000
0000
0000
0000
0000
0000
0000
0000
,
0000
0000
0000
0000
0000
0000
0000
0000
,
0000
0000
0000
0000
0000
0000
0000
0000
,
;
