#TITLE:Mario Desert JERSEY CLUB (prod. RaeSam);
#SUBTITLE:;
#ARTIST:Dancing Monkeys Project;
#TITLETRANSLIT:;
#SUBTITLETRANSLIT:;
#ARTISTTRANSLIT:;
#GENRE:;
#CREDIT:Gorilla v1.1.3 (Dancing Monkeys v1.06);
#BANNER:;
#BACKGROUND:;
#LYRICSPATH:;
#CDTITLE:;
#MUSIC:Mario Desert JERSEY CLUB (prod. RaeSam).mp3;
#OFFSET:-1.758776;
#SAMPLESTART:44.615921;
#SAMPLELENGTH:12.000000;
#SELECTABLE:YES;
#BPMS:0.000000=140.000000
;
#STOPS:
;
#BGCHANGES:;
#KEYSOUNDS:;
#ATTACKS:;

//---------------dance-single - Basic----------------
#NOTES:
     dance-single:
     Basic:
     Easy:
     4:
     0.239443,0.248558,0.000000,0.010884,0.000000,154.000000,154.000000,0.000000,1.000000,0.000000,0.000000,0.239443,0.248558,0.000000,0.010884,0.000000,154.000000,154.000000,0.000000,1.000000,0.000000,0.000000:
1000
0000
0100
0000
,
1000
0000
1000
0000
,
1000
0000
0100
0000
,
0001
0100
0010
1000
,
0100
0100
0100
0010
,
1000
0100
0100
1000
,
1000
0100
0010
0001
,
0001
0010
0100
1000
,
0010
0100
0010
0100
,
1000
0100
0010
0100
,
1000
0000
0000
0000
,
0010
0001
0010
0100
,
1000
0000
0000
0000
,
0010
0100
1000
0000
,
1000
0010
0001
0000
,
0100
0001
0100
0000
,
1000
1000
0010
0000
,
0100
0001
0010
0000
,
0100
0100
0010
0000
,
1000
0000
0010
0000
,
0100
0000
1000
0000
,
0010
0000
0001
0000
,
1000
0000
0100
0000
,
1000
1000
1000
1000
,
0000
0100
0100
0100
,
0001
0001
0001
0000
,
0010
0010
0010
0000
,
0001
0100
0010
0100
,
0001
0010
0100
1000
,
0001
0010
0100
1000
,
1000
0100
0010
0001
,
0100
0100
0100
0100
,
0010
0010
0010
0010
,
1000
1000
1000
1000
,
1000
0000
0000
0000
,
0100
0001
0100
0010
,
0002
0000
0000
0003
,
0100
0001
0100
0000
,
1000
0100
0010
0000
,
0010
0001
0100
0000
,
0100
0001
0100
0000
,
1000
0010
1000
0000
,
0001
1000
0010
0000
,
1000
0000
0100
0000
,
0010
0000
0100
0000
,
0001
0000
0100
0000
,
1000
0000
0100
0000
,
1000
1000
1000
1000
,
0001
0001
0001
0001
,
0100
0100
1000
1000
,
0100
0100
0000
0010
;

//---------------dance-single - Basic----------------
#NOTES:
     dance-single:
     :
     Beginner:
     4:
     0.147708,0.138088,0.000000,0.000000,0.000000,95.000000,95.000000,0.000000,0.000000,0.000000,0.000000,0.147708,0.138088,0.000000,0.000000,0.000000,95.000000,95.000000,0.000000,0.000000,0.000000,0.000000:
// measure 0
1000
0000
0000
0000
,  // measure 1
1000
0000
0000
0000
,  // measure 2
0010
0000
0000
0000
,  // measure 3
0001
0000
0001
0000
,  // measure 4
0100
0000
0100
0000
,  // measure 5
1000
0000
1000
0000
,  // measure 6
1000
0000
0010
0000
,  // measure 7
0010
0000
0001
0000
,  // measure 8
0001
0000
0100
0000
,  // measure 9
0100
0000
1000
0000
,  // measure 10
1000
0000
0000
0000
,  // measure 11
0010
0000
0010
0000
,  // measure 12
1000
0000
0000
0000
,  // measure 13
0010
0000
1000
0000
,  // measure 14
1000
0000
0001
0000
,  // measure 15
0100
0000
0100
0000
,  // measure 16
1000
0000
0010
0000
,  // measure 17
0100
0000
0010
0000
,  // measure 18
0100
0000
0010
0000
,  // measure 19
1000
0000
0010
0000
,  // measure 20
0100
0000
1000
0000
,  // measure 21
0010
0000
0001
0000
,  // measure 22
1000
0000
0100
0000
,  // measure 23
1000
0000
0001
0000
,  // measure 24
0000
1000
0000
0100
,  // measure 25
0000
0001
0000
0100
,  // measure 26
0000
0000
0010
0000
,  // measure 27
0001
0000
0100
0000
,  // measure 28
0001
0000
0100
0000
,  // measure 29
0001
0000
0100
0000
,  // measure 30
1000
0000
0010
0000
,  // measure 31
0100
0000
1000
0000
,  // measure 32
0001
0000
0010
0000
,  // measure 33
1000
0000
0100
0000
,  // measure 34
1000
0000
0000
0000
,  // measure 35
0100
0000
1000
0000
,  // measure 36
0001
0000
0000
0000
,  // measure 37
1000
0000
0010
0000
,  // measure 38
1000
0000
0010
0000
,  // measure 39
1000
0000
0010
0000
,  // measure 40
1000
0000
0001
0000
,  // measure 41
0100
0000
1000
0000
,  // measure 42
0010
0000
0100
0000
,  // measure 43
1000
0000
0100
0000
,  // measure 44
0010
0000
0100
0000
,  // measure 45
0001
0000
0100
0000
,  // measure 46
1000
0000
0100
0000
,  // measure 47
1000
0000
0100
0000
,  // measure 48
0001
0000
0010
0000
,  // measure 49
0100
0000
0001
0000
,  // measure 50
0100
0100
0000
0010
;
